Files
TJA-by-song-no/tja/125.tja
2026-03-07 15:37:31 +09:00

1031 lines
10 KiB
Plaintext

//TJADB Project
TITLE:Dragon Spirit Medley
TITLEJA:ドラゴンスピリットメドレー
SUBTITLE:--Shinji Hosoe/Dragon Spirit
BPM:175
WAVE:Dragon Spirit Medley.ogg
OFFSET:-2.379
DEMOSTART:3.740
COURSE:Oni
LEVEL:7
STYLE:Double
#START P1
1000000011111111,
10101112,
11121212,
10101112,
11121110,
10101112,
11121212,
10101112,
12211221,
10101110,
11101122,
10101110,
11101122,
10121122,
10121122,
1111,
21212121,
30101011,
1111,
10101011,
1000100010221020,
1111,
10101011,
10201120,
10202112,
10201120,
10211012,
02101120,
11201020,
01121212,
1000101000111000,
10201120,
11211000,
11203000,
11203000,
11204021,
1010201010201110,
11000222,
1010000000201110,
1210,
11211000,
1210,
11211000,
1210,
11211000,
11201120,
11211212,
01010211,
01101121,
02202202,
02202201,
00010022,
10012021,
01211012,
02120203,
#GOGOSTART
01201120,
11201121,
01201120,
11201211,
01211121,
11211213,
01211000,
0010222022201110,
11201020,
11201020,
1010201010102220,
#GOGOEND
300222,
3,
,
10101001,
100000100100000111100100,
3,
202222221111,
1020001000200011,
1000002210101010,
10201121,
01221221,
01201201,
01211021,
10201121,
01201121,
10201121,
0010221022102222,
10201121,
0010200010101110,
01201201,
01211221,
30000033,
01201121,
0011201010000000,
11201020,
1122221122111111,
10101110,
11101122,
10101110,
11101122,
10121122,
10121122,
100000000000100000000000500000000000000008000000,
1020200010101110,
11201112,
11121212,
11201112,
11121110,
11201112,
11121221,
21121121,
,
#MEASURE 8/4
500000000000000008000000200000000200000000200000000200000000100100200200000000000000000000000000,
#MEASURE 4/4
3000000000000111,
#END
#START P2
1000000011111111,
10101110,
11101122,
10101110,
11101122,
10121122,
10121122,
100000000000100000000000500000000000000008000000,
1020200010101110,
10101112,
11121212,
10101112,
11121110,
10101112,
11121221,
1111,
21212121,
3111,
10101011,
1111,
1000100010221020,
10101011,
1111,
11201020,
11202110,
11201020,
11201012,
02101020,
11211020,
01121012,
1000111000101000,
11211000,
00201120,
00001120,
30001120,
40001120,
1010201010201110,
11000222,
1010000000201110,
11211000,
1210,
11211000,
1210,
11211000,
1210,
00112011,
20011212,
10010022,
11101004,
00010012,
10012211,
01010210,
11012021,
01011212,
02120201,
#GOGOSTART
11201121,
01201120,
11201121,
01201120,
11211121,
01211213,
00101211,
0010222022201110,
10201120,
10201120,
1000201010102220,
#GOGOEND
300222,
3,
,
3000001110100010,
000200000000200111100100,
3,
202222221111,
12010211,
1000001010101022,
10221121,
01201221,
01221201,
01201021,
10221121,
01201120,
40200404,
0010221022102222,
1000200010101110,
01201121,
01201201,
01211221,
3000111110100000,
00001110,
30000404,
00201120,
1122221122111111,
10101112,
11121212,
10101112,
11121110,
10101112,
11121212,
10101012,
12212112,
11101110,
11101122,
11101110,
11101122,
10121122,
10121122,
,
21212121,
#MEASURE 8/4
500000000000000008000000200000000200000000200000000200000000100100200200000000000000000000000000,
#MEASURE 4/4
3000000000000111,
#END
STYLE:Single
SCOREINIT:470
SCOREDIFF:123
#START
1000000011111111,
10101112,
11121212,
10101112,
11121110,
10101112,
11121212,
10101112,
12211221,
10101112,
11121212,
10101112,
11121110,
10101112,
11121221,
10101010,
21212121,
30101010,
10101010,
10101010,
1000100010221020,
10101010,
10101010,
11201120,
11202112,
10201000,
11211012,
02101020,
11211020,
01121212,
10110110,
10201000,
11211000,
11201120,
11201120,
11211121,
1010201010201110,
11000222,
1010000000201110,
10201000,
11211000,
10201000,
11211000,
10201000,
11211000,
11201120,
11211212,
01010211,
01101121,
02202202,
02202201,
01010210,
11012021,
01121212,
02120203,
#GOGOSTART
01201120,
11201121,
01201120,
11201211,
01201120,
11201203,
01211211,
0010222022201110,
11201120,
11201120,
1010201010102220,
#GOGOEND
300000000000000000000000200000002000000020000000,
3,
,
10120101,
100000200000000000100000200000101010100000100000,
3,
202222221111,
1020001000200011,
1000002210101010,
10201121,
01201221,
01201201,
01211221,
10201121,
01201120,
10201202,
0010221022102222,
10201121,
01201221,
01201201,
01211221,
30000033,
01201121,
0011201010200020,
01201120,
1122221122111111,
10101112,
11121212,
10101112,
11121110,
10101112,
11121212,
10101112,
12212112,
11201112,
11121212,
11201112,
11121110,
11201112,
11121221,
21121121,
21212121,
#MEASURE 8/4
500000000000000008000000200000000200000000200000000200000000100100200200000000000000000000000000,
#MEASURE 4/4
3,
#END
COURSE:Hard
LEVEL:8
STYLE:Double
SCOREINIT:430
SCOREDIFF:90
#START P1
1000000011111111,
10101112,
11121212,
10101112,
11121110,
10101112,
11121212,
10101112,
12211221,
10101110,
11101122,
10101110,
11101122,
10121122,
10121122,
1111,
21212121,
30101011,
1111,
10101011,
1000100010221020,
1111,
10101011,
10201120,
10202112,
10201120,
10211012,
02101120,
11201020,
01121212,
1000101000111000,
10201120,
11211000,
11203000,
11203000,
11204021,
1010201010201110,
11000222,
1010000000201110,
1210,
11211000,
1210,
11211000,
1210,
11211000,
11201120,
11211212,
01010211,
01101121,
02202202,
02202201,
00010022,
10012021,
01211012,
02120203,
#GOGOSTART
01201120,
11201121,
01201120,
11201211,
01211121,
11211213,
01211000,
0010222022201110,
11201020,
11201020,
1010201010102220,
#GOGOEND
300222,
3,
,
10101001,
100000100100000111100100,
3,
202222221111,
1020001000200011,
1000002210101010,
10201121,
01221221,
01201201,
01211021,
10201121,
01201121,
10201121,
0010221022102222,
10201121,
0010200010101110,
01201201,
01211221,
30000033,
01201121,
0011201010000000,
11201020,
1122221122111111,
10101110,
11101122,
10101110,
11101122,
10121122,
10121122,
100000000000100000000000500000000000000008000000,
1020200010101110,
11201112,
11121212,
11201112,
11121110,
11201112,
11121221,
21121121,
,
#MEASURE 8/4
500000000000000008000000200000000200000000200000000200000000100100200200000000000000000000000000,
#MEASURE 4/4
3000000000000111,
#END
#START P2
1000000011111111,
10101110,
11101122,
10101110,
11101122,
10121122,
10121122,
100000000000100000000000500000000000000008000000,
1020200010101110,
10101112,
11121212,
10101112,
11121110,
10101112,
11121221,
1111,
21212121,
3111,
10101011,
1111,
1000100010221020,
10101011,
1111,
11201020,
11202110,
11201020,
11201012,
02101020,
11211020,
01121012,
1000111000101000,
11211000,
00201120,
00001120,
30001120,
40001120,
1010201010201110,
11000222,
1010000000201110,
11211000,
1210,
11211000,
1210,
11211000,
1210,
00112011,
20011212,
10010022,
11101004,
00010012,
10012211,
01010210,
11012021,
01011212,
02120201,
#GOGOSTART
11201121,
01201120,
11201121,
01201120,
11211121,
01211213,
00101211,
0010222022201110,
10201120,
10201120,
1000201010102220,
#GOGOEND
300222,
3,
,
3000001110100010,
000200000000200111100100,
3,
202222221111,
12010211,
1000001010101022,
10221121,
01201221,
01221201,
01201021,
10221121,
01201120,
40200404,
0010221022102222,
1000200010101110,
01201121,
01201201,
01211221,
3000111110100000,
00001110,
30000404,
00201120,
1122221122111111,
10101112,
11121212,
10101112,
11121110,
10101112,
11121212,
10101012,
12212112,
11101110,
11101122,
11101110,
11101122,
10121122,
10121122,
,
21212121,
#MEASURE 8/4
500000000000000008000000200000000200000000200000000200000000100100200200000000000000000000000000,
#MEASURE 4/4
3000000000000111,
#END
STYLE:Single
SCOREINIT:430
SCOREDIFF:108
#START
1000000011111111,
10101112,
11121212,
10101112,
11121110,
10101112,
11121212,
10101112,
12211221,
10101112,
11121212,
10101112,
11121110,
10101112,
11121221,
10101010,
21212121,
30101010,
10101010,
10101010,
1000100010221020,
10101010,
10101010,
11201120,
11202112,
10201000,
11211012,
02101020,
11211020,
01121212,
10110110,
10201000,
11211000,
11201120,
11201120,
11211121,
1010201010201110,
11000222,
1010000000201110,
10201000,
11211000,
10201000,
11211000,
10201000,
11211000,
11201120,
11211212,
01010211,
01101121,
02202202,
02202201,
01010210,
11012021,
01121212,
02120203,
#GOGOSTART
01201120,
11201121,
01201120,
11201211,
01201120,
11201203,
01211211,
0010222022201110,
11201120,
11201120,
1010201010102220,
#GOGOEND
3000000020020020,
3,
,
10120101,
100000200000000000100000200000101010100000100000,
3,
202222221111,
1020001000200011,
1000002210101010,
10201121,
01201221,
01201201,
01211221,
10201121,
01201120,
10201202,
0010221022102222,
10201121,
01201221,
01201201,
01211221,
30000033,
01201121,
0011201010200020,
01201120,
1122221122111111,
10101112,
11121212,
10101112,
11121110,
10101112,
11121212,
10101112,
12212112,
11201112,
11121212,
11201112,
11121110,
11201112,
11121221,
21121121,
21212121,
#MEASURE 8/4
500000000000000008000000200000000200000000200000000200000000100100200200000000000000000000000000,
#MEASURE 4/4
3,
#END
COURSE:Normal
LEVEL:6
BALLOON:8,8
#START
100000000000000000000000500000000008000000000000,
1110,
10201110,
1110,
10201120,
1110,
10201110,
1110,
10202220,
1110,
10201110,
1110,
10201120,
1110,
10202220,
1111,
2222,
3,
1,
1011,
10200220,
12,
12,
1012,
7008,
1110,
11201000,
1110,
11201120,
01101100,
10110220,
1110,
11201000,
12,
12,
1122,
3,
11000000,
11000000,
1210,
11101110,
1210,
11102220,
1210,
11101110,
12,
10102222,
1,
10002001,
,
10002201,
,
10002001,
00001103,
00000001,//55
#GOGOSTART
0210,
10201101,
0210,
10201101,
0210,
10201101,
0210,
500000000000000000000000000000000008000000000000,
12,
12,
1122,//66
#GOGOEND
3,
1,
,
10020200,
11,
3,
2222,
11010100,
13,
1210,
11201000,
1210,
11201120,
1210,
11201000,
10200101,
00201111,
10201011,
01201011,
01201011,
01101000,
30000011,
00201110,
30000303,
00201110,
7008,
1110,
10101120,
1110,
11201120,
1110,
10101120,
1110,
11202222,
10101110,
11101120,
10101110,
11101120,
10101110,
11101111,
3333,
4444,
#MEASURE 8/4
500000000008000000000000100000000000000000000000000000000000000000000000000000000000000000000000,
#MEASURE 4/4
3,
,
,
,
#END
COURSE:Easy
LEVEL:4
BALLOON:5
#START
100000000000000000000000500000000008000000000000,
1,
10001100,
1,
10001100,
1,
10001100,
1110,
1,
1,
10001100,
1,
10001100,
1,
10001100,
1,
1111,
1,
1,
1011,
1,
1,
1,
1011,
500000000000000000000000000008000000000000000000,
11,
1,
11010000,
1,
0110,
1,
11,
1,
12,
12,
1011,
1,
11000000,
11000000,
10010030,
,
10010030,
,
10010030,
,
1,
3,
1,
00002001,
,
00002001,
,
00002001,
00002001,
,//55
#GOGOSTART
0110,
12,
0110,
3,
0110,
12,
0110,
500000000000000000000000000008000000000000000000,
12,
12,
1011,//66
#GOGOEND
1,
3,
,
1,
11,
3,
2220,
1,
13,
0101,
0101,
0101,
0102,
0101,
0101,
0101,
0120,
1011,
0110,
1011,
0110,
30000011,
,
30000303,
,
7008,
11,
10001100,
11,
10001100,
11,
10001100,
1110,
1110,
11,
10001100,
11,
10001100,
11,
10001100,
1,
3333,
#MEASURE 8/4
500000000008000000000000100000000000000000000000000000000000000000000000000000000000000000000000,
#MEASURE 4/4
3,
,
,
,
#END