Files
TJA-by-song-no/tja/1272.tja
2026-03-07 15:37:31 +09:00

1190 lines
32 KiB
Plaintext

//TJADB Project
TITLE:Takkyuu de Dakkyuu
TITLEJA:卓球de脱臼
SUBTITLE:--Yoshihito Yano feat. Kinta
SUBTITLEJA:Kinta
BPM:120
WAVE:Takkyuu de Dakkyuu.ogg
OFFSET:-0.982
DEMOSTART:52.978
COURSE:Oni
LEVEL:8
SCOREINIT:490
SCOREDIFF:130
#START
// #SECTION // 3
100000000000100000200000000000100000200000100000,
#SECTION // 4
200000000000200000000000200000000100100200100000,
#BPMCHANGE 119.67
#SECTION // 5
#BRANCHSTART p,75,90 // 3
#N
100000200000200000000000200000000000200100100200,
#E
100000200000200000000000200000100000200100100200,
#M
100000200000200000100000200000100000200100100200,
#BRANCHEND
#BPMCHANGE 120
#SECTION // 6
#BRANCHSTART p,75,90 // 4
#N
100000000000200000100000000100000100000100100200,
#E
100000000000200000100000000100000100200100100200,
#M
100000000000200000100000000100000100200100100200,
#SECTION // 7
#BRANCHSTART p,75,90 // 5
#N
100000000000200000200200000000100000200000000000,
#E
100000000000200000100200000000100000200000000000,
#M
100000000000200000100200000000100000200000100000,
#SECTION // 8
#BRANCHSTART p,75,90 // 6
#N
100000000000200000000100000100100000200000100000,
#E
100000000000200100000100000100100000200000100000,
#M
100000000000200100000100000200100000200000100000,
#SECTION // 9
#BRANCHSTART p,75,90 // 7
#N
100000000000200000100000000000100000200000100000,
#E
100000000000200000100000000000100000200000100000,
#M
100000000000200000100000000000100000200000100000,
#SECTION // 10
#BRANCHSTART p,75,90 // 8
#N
200000000000200000000000100000100000000100100100,
#E
200000000000200000000000100000100000000200100100,
#M
400000000000400000000000100000100000000200100100,
#BRANCHEND
#BPMCHANGE 120.08
#SECTION // 12
#BRANCHSTART p,75,90 // 9
#N
200000000000000000000000000000000000000000000000,
#E
200000000000000000000000000000000000000000000000,
#M
200000000000000000000000000000000000200000200200,
#BRANCHEND
#GOGOSTART
#BPMCHANGE 120
#BRANCHSTART p,75,90 // 10
#N
1020102210201022,
1020102211201022,
#E
1020102210201122,
1020102211201022,
#M
1022102210201122,
#SECTION // 13
1022102211201022,
#SECTION // 14
#BRANCHSTART p,75,90 // 12
#N
100000200000100000200200100000200000100000200200,
#E
100000200000100000200200100000200000100000200200,
#M
100000200200100000200200100000200000100000200200,
#SECTION // 15
#BRANCHSTART p,75,90 // 13
#N
100000200000100000000000300000000000300000000000,
#E
100100200000100000200000300000000000300000000000,
#M
100100200000100000200000300000000000300000200200,
#SECTION // 16
#BRANCHSTART p,75,90 // 14
#N
100000200000100000200200100000200000100000200200,
#E
100000200000100000200200100000200000100100200200,
#M
100000200200100000200200100000200000100100200200,
#SECTION // 17
#BRANCHSTART p,75,90 // 15
#N
100000200000100000200200100100200000100000200200,
#E
100000200000100000200200100100200000100000200200,
#M
100000200200100000200200100100200000100000200200,
#SECTION // 18
#BRANCHSTART p,75,90 // 16
#N
100000200000100000200200100000200000100000200200,
#E
100000200000100000200200100000200000100000200200,
#M
100000200200100000200200100000200000100000200200,
#BRANCHEND
#BPMCHANGE 120.38
#SECTION // 19
#BRANCHSTART p,75,90 // 17
#N
100100200000100000000000300000000000300000000000,
#E
100100200000100000200000300000000000300000000000,
#M
100100200000100000200000300000000000300000100100,
#BRANCHEND
#GOGOEND
#BPMCHANGE 120
#SECTION // 20
#BRANCHSTART p,75,90 // 18
#N
200000200000200000200200200000200200000200200000,
#E
200000200000200000200200200000200200000200200000,
#M
200000200000200000200200200000200200000200200000,
#SECTION // 21
#BRANCHSTART p,75,90 // 19
#N
200000200000200000200000200000200200000200200000,
#E
200000200000200000200000200000200200000200200000,
#M
200000200000200000200000200000200200000200200000,
#SECTION // 22
#BRANCHSTART p,75,90 // 20
#N
100000200000100000200200200000200200000200200000,
#E
100000200000100000200200200000100200000200100000,
#M
100000200000100000200200200000100200000200100000,
#BRANCHEND
#BPMCHANGE 119.62
#SECTION // 23
#BRANCHSTART p,75,90 // 21
#N
100000200000100000200000200000200200000200200000,
#E
100000200000100000200000200000100200000200100000,
#M
100000200000100000200000200000100200000200100000,
#BRANCHEND
#BPMCHANGE 120
#SECTION // 24
#BRANCHSTART p,75,90 // 22
#N
100100000200200000200200200000100000200000100000,
#E
100100000200200000200200200000100000200200100000,
#M
100200000200100000200200200000100000200200100000,
#SECTION // 25
#BRANCHSTART p,75,90 // 23
#N
100100000200200000100100000000100000200000100000,
#E
100100000200200000100100000200100000200200100000,
#M
100200000200100000200200000200100000200200100000,
#SECTION // 26
#BRANCHSTART p,75,90 // 24
#N
100100000200200000200200200000100000200000100000,
#E
100100000200200000200200200000100000200200100000,
#M
100200000200100000200200200000100000200200100000,
#SECTION // 27
#BRANCHSTART p,75,90 // 25
#N
100100000200200000100100000200200000100100100100,
#E
100100000200200000100100000200200000100100200200,
#M
100200000200100000200100000200100000100200100100,
#SECTION // 28
#BRANCHSTART p,75,90 // 26
#N
200000000000000000000000000000200200200000000000,
#E
200000000000000000000000000000200200200000000000,
#M
200000000000000000000000000000200200200000000000,
#BRANCHEND
#GOGOSTART
#SECTION // 29
#BRANCHSTART p,75,90 // 27
#N
100000200000100000200200100000200000100000200200,
#E
100000200000100000200200100000200000100100200200,
#M
100000200200100000200200100000200000100100200200,
#SECTION // 30
#BRANCHSTART p,75,90 // 28
#N
100000200000100000200200100100200000100000200200,
#E
100000200000100000200200100100200000100000200200,
#M
100000200200100000200200100100200000100000200200,
#SECTION // 31
#BRANCHSTART p,75,90 // 29
#N
100000200000100000200200100000200000100000200200,
#E
100000200000100000200200100000200000100000200200,
#M
100000200200100000200200100000400000300000200200,
#SECTION // 32
#BRANCHSTART p,75,90 // 30
#N
100000200000100000000000300000000000300000000000,
#E
100100200000100000200000300000000000300000000000,
#M
100100200000100000200000300000000000300000000000,
#SECTION // 33
#BRANCHSTART p,75,90 // 31
#N
100000200000100000200200100000200000100000200200,
#E
100000200000100000200200100000200000100100200200,
#M
100000200200100000200200100000200000100100200200,
#SECTION // 34
#BRANCHSTART p,75,90 // 32
#N
100000200200100000200200100100200000100000200200,
#E
100000200200100000200200100100200000100000200200,
#M
100000200200100000200200100100200000100000200200,
#SECTION // 35
#BRANCHSTART p,75,90 // 33
#N
100000200000100000200200100000200000100000200200,
#E
100000200000100000200200100000200000100000200200,
#M
100000200200100000200200100000400000300000200200,
#BRANCHEND
#BPMCHANGE 120.08
#SECTION // 36
#BRANCHSTART p,75,90 // 34
#N
100000200100000100000200100000000000300000000000,
#E
100000200100000100000200100000200000300000000000,
#M
100000200100000100200200100000200000300000000000,
#BRANCHEND
#GOGOEND
#BPMCHANGE 119.88
#SECTION // 37
#BRANCHSTART p,75,90 // 35
#N
200000200000200000200200200000200200000200200000,
#E
200000200000200000200200200000200200000200200000,
#M
200000200000200000200200200000200200000200200000,
#BRANCHEND
#BPMCHANGE 120
#SECTION // 38
#BRANCHSTART p,75,90 // 36
#N
200000200000200000200000200000200200000200200000,
#E
200000200000200000200000200000200200000200200000,
#M
200000200000200000200000200000200200000200200000,
#SECTION // 39
#BRANCHSTART p,75,90 // 37
#N
100000200000100000200200200000100100000200200000,
#E
100000200000100000200200200000100200000200100000,
#M
100000200000100000200200200000100200000200100000,
#SECTION // 40
#BRANCHSTART p,75,90 // 38
#N
100000200000100000200000200000100100000200200000,
#E
100000200000100000200000200000100200000200100000,
#M
100000200000100000200000200000100200000200100000,
#SECTION // 41
#BRANCHSTART p,75,90 // 39
#N
100100000200200000200200200000100000200000100000,
#E
100100000200200000200200200000100000200200100000,
#M
100200000200100000200200200000100000200200100200,
#SECTION // 42
#BRANCHSTART p,75,90 // 40
#N
100100000200200000100100000200200000200200200000,
#E
100100000200200000100100000200100000200200100000,
#M
100200000200100000200200000200100000200200100200,
#SECTION // 43
#BRANCHSTART p,75,90 // 41
#N
100100000200200000200200200000100000200200200000,
#E
100100000200200000200200200000100000200200100000,
#M
100200000200100000200200200000100000200200100200,
#BRANCHEND
#BPMCHANGE 120.12
#SECTION // 44
#BRANCHSTART p,75,90 // 42
#N
100100000200200000100100000200200000100100100100,
#E
100100200200200000100100000200200000100100200200,
#M
100200200200100000200100000200100000100200100100,
#BRANCHEND
#BPMCHANGE 119.91
#SECTION // 45
#BRANCHSTART p,75,90 // 43
#N
200000000000000000000100100000100000200000200200,
#E
100000000000000000000100100000100000200100200200,
#M
200000000000000000000200100000200000200100200200,
#BRANCHEND
#BPMCHANGE 120
#SECTION // 46
#BRANCHSTART p,75,90 // 44
#N
100000100100200000100000200100100000200000200200,
#E
100000100100200000100200200100100000200000200200,
#M
100000100100200000100200200100100000200000200200,
#SECTION // 47
#BRANCHSTART p,75,90 // 45
#N
100000100000100200000100000100200200200000000000,
#E
100000100000100200000100200100200200200000000000,
#M
100200100000100200000100200100200200200000100200,
#SECTION // 48
#BRANCHSTART p,75,90 // 46
#N
100000100100200000100000200100200000100000200200,
#E
100000100100200000100200200100200000100000200200,
#M
100000100100200000100200200100200000100000200200,
#SECTION // 49
#BRANCHSTART p,75,90 // 47
#N
100000100000100200000100000100200200200000000000,
#E
100000100000100200000100200100200200200000000000,
#M
100200100000100200000100200100200200200000100200,
#SECTION // 50
#BRANCHSTART p,75,90 // 48
#N
100000100100200000100000200100100000200000200200,
#E
100000100100200000100200200100100000200000200200,
#M
100000100100200000100200200100100000200000200200,
#SECTION // 51
#BRANCHSTART p,75,90 // 49
#N
100000100000100200000100000100200200200000100200,
#E
100000100000100200000100200100200200200000100100,
#M
100200100000100200000100200100200200200000100200,
#SECTION // 52
#BRANCHSTART p,75,90 // 50
#N
100000100100200000100000100100200000100000200200,
#E
100000100100200000100200100100200000100000200200,
#M
100000100100200000100200100100200000100000200200,
#SECTION // 53
#BRANCHSTART p,75,90 // 51
#N
100100000200200000100100000100200200100000000000,
#E
100100000200200000100100000100200200100000200200,
#M
100200000100200000100200000100200200100000200200,
#BRANCHEND
#GOGOSTART
#SECTION // 54
#BRANCHSTART p,75,90 // 52
#N
100000200000100000200200100000200000100000200200,
#E
100000200000100000200200100000200000100100200200,
#M
100000200200100000200200100000200000100100200200,
#SECTION // 55
#BRANCHSTART p,75,90 // 53
#N
100000200000100000200200100100200000100000000000,
#E
100000200000100000200200100100200000100000200200,
#M
100100200000100000200200100100200000300000200200,
#SECTION // 56
#BRANCHSTART p,75,90 // 54
#N
100000200000100000200200100000200000100000200200,
#E
100000200000100000200200100000200000100100200200,
#M
100000200200100000200200100000200000100100200200,
#SECTION // 57
#BRANCHSTART p,75,90 // 55
#N
100000200000100000200000300000000000300000000000,
#E
100000200000100000200000300000000000300000200200,
#M
100100200000100000200000100100200100200000200200,
#SECTION // 58
#BRANCHSTART p,75,90 // 56
#N
100000200000100000200200100000200000100000200200,
#E
100000200000100000200200100000200000100100200200,
#M
100000200200100000200200100000200000100100200200,
#SECTION // 59
#BRANCHSTART p,75,90 // 57
#N
100000200000100000200200100100200000100000000000,
#E
100000200000100000200200100100200000100000200200,
#M
100100200000100000200200100100200000300000200200,
#SECTION // 60
#BRANCHSTART p,75,90 // 58
#N
100000200000100000200200100000200000100000200200,
#E
100000200000100000200200100000200000100100200200,
#M
100000200200100000200200100000200000100100200200,
#BRANCHEND
#BPMCHANGE 119.88
// #SECTION // 61
#BRANCHSTART p,75,90 // 59
#N
100000200000100000200200100100200100200000000000,
#E
100000200000100000200200100100200100200000200200,
#M
100100200000100000200200100100200100200000200200,
#BRANCHEND
#BPMCHANGE 120.05
#BRANCHSTART p,75,90 // 60
#N
100000300000000000000000000000000000000000000000,
#BPMCHANGE 121.06
400000000000000000000000000000000000000000000000,
#E
100000300000000000000000000000000000000000000000,
#BPMCHANGE 121.06
400000000000000000000000000000000000000000000000,
#M
100000300000000000000000000000000000000000000000,
#BPMCHANGE 121.06
400000200000200000500000000000000000000000000008,
#BRANCHEND
#GOGOEND
#BPMCHANGE 121.05
#END
COURSE:Hard
LEVEL:8
SCOREINIT:580
SCOREDIFF:158
#START
100000000000100000200000000000100000200000000000,
200000000000200000000000200000000100100100100000,
#BPMCHANGE 119.67
100000200000200000000000200000100000000100100100,
#BPMCHANGE 120
100000000000200000100000000100000100000100000100,
100000000000200000200200000000100000200000000000,
100000000000100100000100000100100000200000100000,
100000000000200000100000000000100000200000100000,
100000000000100000000000200000200000000100100100,
#BPMCHANGE 120.08
100000000000000000000000000000000000000000000000,
#BPMCHANGE 120
#GOGOSTART
100000200000100000200000100000200000100000200200,
100000200000100000000000300000000000300000000000,
100000200000100000200000100000200000100000200200,
100000200000100000000000300000000000400000000000,
100000200000100000200000100000200000100000200200,
100000200000100000000000300000000000300000000000,
100000200000100000200000100000200000100000200200,
#BPMCHANGE 120.38
100000200000100000000000300000000000400000000000,
#GOGOEND
#BPMCHANGE 120
200000000000200000200000200000200200000200200000,
200000000000200000200000200000200200000200200000,
100000000000100000200000200000200200000200200000,
#BPMCHANGE 119.62
100000000000100000200000200000200200000200200000,
#BPMCHANGE 120
100100000200200000200200000000100000200000100000,
100100000200200000100100000000100000200000100000,
100100000200200000200200000000100000200000100000,
100100000200200000100100000200200000100100100100,
200000000000000000000000000000200200200000000000,
#GOGOSTART
100000200000100000200000100000200000100000200200,
100000200000100000200200000000200000000000200200,
100000200000100000200000100000200000100000200200,
100000200000100000000000300000000000400000000000,
100000200000100000200000100000200000100000200200,
100000200000100000200200000000200000000000200200,
100000200000100000200000100000200000100000200200,
#BPMCHANGE 120.08
100000100100000100000100100000000000400000000000,
#GOGOEND
#BPMCHANGE 119.88
200000200000200000200000200000200200000200200000,
#BPMCHANGE 120
200000200000200000200000200000200200000200200000,
200000200000200000200000200000100100000200200000,
100000200000100000200000200000100100000200200000,
100100000200200000200200000000100000200000100000,
100100000200200000100100000000100000200000100000,
100100000200200000200200000000100000200000100000,
#BPMCHANGE 120.12
100100000200200000100100000200200000100100100100,
#BPMCHANGE 119.91
200000000000000000000000100000100000400000000000,
#BPMCHANGE 120
100000000100100000100000000100100000200000000000,
100000100000100100000100000100000200200000000000,
100000000100100000100000000100100000200000000000,
100000100000100100000100000200200200200000000000,
100000000100100000200000000100100000200000000000,
100000100000100100000100000100000200200000000000,
100000000100100000100000000100100000200000000000,
100000000100000000100000100100100100200000000000,
#GOGOSTART
100000200000100000200200100000200000100000200200,
100000200000100000200000100100100100200000000000,
100000200000100000200200100000200000100000200200,
100000200000100000000000300000000000400000000000,
100000200000100000200200100000200000100000200200,
100000200000100000200000100100100100200000000000,
100000200000100000200200100000200000100000200200,
#BPMCHANGE 119.88
100000200000100000000000300000000000400000000000,
#BPMCHANGE 120.05
100000300000000000000000000000000000000000000000,
#BPMCHANGE 121.06
400000000000000000000000000000000000000000000000,
#GOGOEND
#BPMCHANGE 121.05
#END
COURSE:Normal
LEVEL:7
STYLE:Double
SCOREINIT:770
SCOREDIFF:200
#START P1
100000000000000000200000000000000000200000000000,
200000000000200000000000200000000000000000000000,
#BPMCHANGE 119.67
100000000000000000200000000000000000200000000000,
#BPMCHANGE 120
100000000000000000200000000000200000200000000000,
100000000000000000000400000000000000000000000000,
100000000000000000200000000000000000200000000000,
100000000000000000200000000000200000200000000000,
100000000000100000000000000000000000000000000000,
#BPMCHANGE 120.08
400000000000000000000000000000000000000000000000,
#GOGOSTART
#BPMCHANGE 120
100000100000100000100000100000000000000000100000,
100000100000100000000000300000000000300000000000,
100000100000100000100000100000000000000000100000,
100000100000100000000000400000000000400000000000,
100000100000100000100000100000000000000000100000,
100000100000100000000000300000000000300000000000,
100000100000100000100000100000000000000000100000,
#BPMCHANGE 120.38
100000100000100000000000400000000000400000000000,
#GOGOEND
#BPMCHANGE 120
22202200,
,
22201200,
#BPMCHANGE 119.62
,
#BPMCHANGE 120
2200002200202000,
,
2200002200102000,
,
4,
#GOGOSTART
100000100000200000100000100000000000000000100000,
200000100000100000000000300000000000300000000000,
100000100000200000100000100000000000000000100000,
100000200000100000000000400000000000400000000000,
100000100000200000100000100000000000000000100000,
100000200000100000000000300000000000300000000000,
100000100000200000100000100000000000000000100000,
#BPMCHANGE 120.08
100000200000100000000000400000000000400000000000,
#GOGOEND
#BPMCHANGE 119.88
,
#BPMCHANGE 120
22202200,
,
22201200,
,
2200002200202000,
,
#BPMCHANGE 120.12
2200002200102000,
#BPMCHANGE 119.91
4,
#BPMCHANGE 120
100000000000000000100000100000000000200000000000,
100000000000200000100000000000100000000000000000,
100000000000000000100000100000000000200000000000,
100000000000100000200000000000200000000000000000,
100000000000000000100000100000000000200000000000,
100000000000200000100000000000100000000000000000,
100000000000000000100000100000000000200000000000,
100000000100000000100000000000000000400000000000,
#GOGOSTART
100000100000200000100000200000000000000000100000,
100000200000100000000000300000000000300000000000,
100000100000200000100000200000000000000000100000,
100000200000100000000000400000000000400000000000,
100000100000200000100000200000000000000000100000,
100000200000100000000000300000000000300000000000,
100000100000200000100000200000000000000000100000,
#BPMCHANGE 119.88
100000200000100000000000400000000000400000000000,
#BPMCHANGE 120.05
100000300000000000000000000000000000000000000000,
#BPMCHANGE 121.06
400000000000000000000000000000000000000000000000,
#GOGOEND
#BPMCHANGE 121.05
#END
#START P2
100000000000000000200000000000000000200000000000,
200000000000200000000000200000000000000000000000,
#BPMCHANGE 119.67
100000000000000000200000000000000000200000000000,
#BPMCHANGE 120
100000000000000000200000000000200000200000000000,
100000000000000000000400000000000000000000000000,
100000000000000000200000000000000000200000000000,
100000000000000000200000000000200000200000000000,
100000000000100000000000000000000000000000000000,
#BPMCHANGE 120.08
400000000000000000000000000000000000000000000000,
#GOGOSTART
#BPMCHANGE 120
100000100000100000100000100000000000000000100000,
100000100000100000000000300000000000300000000000,
100000100000100000100000100000000000000000100000,
100000100000100000000000400000000000400000000000,
100000100000100000100000100000000000000000100000,
100000100000100000000000300000000000300000000000,
100000100000100000100000100000000000000000100000,
#BPMCHANGE 120.38
100000100000100000000000400000000000400000000000,
#GOGOEND
#BPMCHANGE 120
,
22202200,
,
#BPMCHANGE 119.62
22201200,
#BPMCHANGE 120
,
2200002200202000,
,
2200002200102000,
4,
#GOGOSTART
100000100000200000100000100000000000000000100000,
200000100000100000000000300000000000300000000000,
100000100000200000100000100000000000000000100000,
100000200000100000000000400000000000400000000000,
100000100000200000100000100000000000000000100000,
100000200000100000000000300000000000300000000000,
100000100000200000100000100000000000000000100000,
#BPMCHANGE 120.08
100000200000100000000000400000000000400000000000,
#GOGOEND
#BPMCHANGE 119.88
22202200,
#BPMCHANGE 120
,
22201200,
,
2200002200202000,
,
2200002200102000,
#BPMCHANGE 120.12
,
#BPMCHANGE 119.91
4,
#BPMCHANGE 120
100000000000000000100000100000000000200000000000,
100000000000200000100000000000100000000000000000,
100000000000000000100000100000000000200000000000,
100000000000100000200000000000200000000000000000,
100000000000000000100000100000000000200000000000,
100000000000200000100000000000100000000000000000,
100000000000000000100000100000000000200000000000,
100000000100000000100000000000000000400000000000,
#GOGOSTART
100000100000200000100000200000000000000000100000,
100000200000100000000000300000000000300000000000,
100000100000200000100000200000000000000000100000,
100000200000100000000000400000000000400000000000,
100000100000200000100000200000000000000000100000,
100000200000100000000000300000000000300000000000,
100000100000200000100000200000000000000000100000,
#BPMCHANGE 119.88
100000200000100000000000400000000000400000000000,
#BPMCHANGE 120.05
100000300000000000000000000000000000000000000000,
#BPMCHANGE 121.06
400000000000000000000000000000000000000000000000,
#GOGOEND
#BPMCHANGE 121.05
#END
STYLE:Single
BALLOON:9
SCOREINIT:720
SCOREDIFF:228
#START
100000000000000000200000000000000000200000000000,
200000000000200000000000200000000000000000000000,
#BPMCHANGE 119.67
100000000000000000200000000000000000200000000000,
#BPMCHANGE 120
100000000000000000200000000000200000200000000000,
100000000000000000000400000000000000000000000000,
100000000000000000200000000000000000200000000000,
100000000000000000200000000000200000200000000000,
100000000000100000000000000000000000000000000000,
#BPMCHANGE 120.08
400000000000000000000000000000000000000000000000,
#GOGOSTART
#BPMCHANGE 120
100000100000100000100000100000000000000000100000,
100000100000100000000000300000000000300000000000,
100000100000100000100000100000000000000000100000,
100000100000100000000000400000000000400000000000,
100000100000100000100000100000000000000000100000,
100000100000100000000000300000000000300000000000,
100000100000100000100000100000000000000000100000,
#BPMCHANGE 120.38
100000100000100000000000400000000000400000000000,
#GOGOEND
#BPMCHANGE 120
200000200000200000000000000000200000000000000000,
200000200000200000000000000000100000000000000000,
200000200000200000000000000000200000000000000000,
#BPMCHANGE 119.62
200000200000200000000000000000100000000000000000,
#BPMCHANGE 120
200200000000000000200200000000200000000000000000,
200200000000000000200200000000100000000000000000,
200200000000000000200200000000200000000000000000,
500000000000000000000000000000000800000000000000,
400000000000000000000000000000000000000000000000,
#GOGOSTART
100000100000200000100000100000000000000000100000,
200000100000100000000000300000000000300000000000,
100000100000200000100000100000000000000000100000,
100000200000100000000000400000000000400000000000,
100000100000200000100000100000000000000000100000,
100000200000100000000000300000000000300000000000,
100000100000200000100000100000000000000000100000,
#BPMCHANGE 120.08
100000200000100000000000400000000000400000000000,
#GOGOEND
#BPMCHANGE 119.88
200000200000200000000000000000200000000000000000,
#BPMCHANGE 120
200000200000200000000000000000100000200000000000,
200000200000200000000000000000200000000000000000,
200000200000200000000000000000100000200000000000,
200200000000000000200200000000200000000000000000,
200200000000000000200200000000100000200000000000,
200200000000000000200200000000200000000000000000,
#BPMCHANGE 120.12
700000000000000000000000000000000800000000000000,
#BPMCHANGE 119.91
400000000000000000000000000000000000000000000000,
#BPMCHANGE 120
100000000000000000100000100000000000200000000000,
100000000000200000100000000000100000000000000000,
100000000000000000100000100000000000200000000000,
100000000000100000200000000000200000000000000000,
100000000000000000100000100000000000200000000000,
100000000000200000100000000000100000000000000000,
100000000000000000100000100000000000200000000000,
100000000100000000100000000000000000400000000000,
#GOGOSTART
100000100000200000100000200000000000000000100000,
100000200000100000000000300000000000300000000000,
100000100000200000100000200000000000000000100000,
100000200000100000000000400000000000400000000000,
100000100000200000100000200000000000000000100000,
100000200000100000000000300000000000300000000000,
100000100000200000100000200000000000000000100000,
#BPMCHANGE 119.88
100000200000100000000000400000000000400000000000,
#BPMCHANGE 120.05
100000300000000000000000000000000000000000000000,
#BPMCHANGE 121.06
400000000000000000000000000000000000000000000000,
#GOGOEND
#BPMCHANGE 121.05
#END
COURSE:Easy
LEVEL:4
STYLE:Double
BALLOON:12
SCOREINIT:660
SCOREDIFF:200
#START P1
100000000000000000200000000000000000000000000000,
200000000000200000000000200000000000000000000000,
100000000000000000200000000000000000000000000000,
100000000000000000200000000000000000000000000000,
100000000000000000000400000000000000000000000000,
100000000000000000200000000000000000200000000000,
100000000000000000200000000000000000000000000000,
100000000000100000000000000000000000000000000000,
400000000000000000000000000000000000000000000000,
#GOGOSTART
100000000000100000000000100000000000000000000000,
100000000000100000000000300000000000000000000000,
100000000000100000000000100000000000000000000000,
100000000000100000000000400000000000400000000000,
100000000000100000000000100000000000000000000000,
100000000000100000000000300000000000000000000000,
100000000000100000000000100000000000000000000000,
100000000000100000000000400000000000400000000000,
#GOGOEND
20202200,
,
20202200,
,
20020020,
,
10010010,
,
4,
#GOGOSTART
100000000000200000000000100000000000000000000000,
200000000000100000000000300000000000000000000000,
100000000000200000000000100000000000000000000000,
100000000000100000000000400000000000400000000000,
100000000000200000000000100000000000000000000000,
100000000000100000000000300000000000000000000000,
100000000000200000000000100000000000000000000000,
100000000000100000000000400000000000400000000000,
#GOGOEND
,
20202200,
,
20202200,
,
20020020,
,
10010010,
4,
100000000000000000100000100000000000000000000000,
100000000000200000100000000000000000000000000000,
100000000000000000100000100000000000000000000000,
100000000000100000200000000000000000000000000000,
100000000000000000100000100000000000000000000000,
100000000000200000100000000000000000000000000000,
100000000000000000100000100000000000000000000000,
500000000000000000000000000800000000000000000000,
#GOGOSTART
100000000000200000000000200000000000000000000000,
100000000000100000000000300000000000000000000000,
100000000000200000000000200000000000000000000000,
100000000000100000000000400000000000400000000000,
100000000000200000000000200000000000000000000000,
100000000000100000000000300000000000000000000000,
100000000000200000000000200000000000000000000000,
100000000000100000000000400000000000400000000000,
000000900000000000000000000000000000000000000000,
000000000000000000000000000800000000000000000000,
#GOGOEND
#END
#START P2
100000000000000000200000000000000000000000000000,
200000000000200000000000200000000000000000000000,
100000000000000000200000000000000000000000000000,
100000000000000000200000000000000000000000000000,
100000000000000000000400000000000000000000000000,
100000000000000000200000000000000000200000000000,
100000000000000000200000000000000000000000000000,
100000000000100000000000000000000000000000000000,
400000000000000000000000000000000000000000000000,
#GOGOSTART
100000000000100000000000100000000000000000000000,
100000000000100000000000300000000000000000000000,
100000000000100000000000100000000000000000000000,
100000000000100000000000400000000000400000000000,
100000000000100000000000100000000000000000000000,
100000000000100000000000300000000000000000000000,
100000000000100000000000100000000000000000000000,
100000000000100000000000400000000000400000000000,
#GOGOEND
,
20202200,
,
20202200,
,
20020020,
,
10010010,
4,
#GOGOSTART
100000000000200000000000100000000000000000000000,
200000000000100000000000300000000000000000000000,
100000000000200000000000100000000000000000000000,
100000000000100000000000400000000000400000000000,
100000000000200000000000100000000000000000000000,
100000000000100000000000300000000000000000000000,
100000000000200000000000100000000000000000000000,
100000000000100000000000400000000000400000000000,
#GOGOEND
20202200,
,
20202200,
,
20020020,
,
10010010,
4,
100000000000000000100000100000000000000000000000,
100000000000200000100000000000000000000000000000,
100000000000000000100000100000000000000000000000,
100000000000100000200000000000000000000000000000,
100000000000000000100000100000000000000000000000,
100000000000200000100000000000000000000000000000,
100000000000000000100000100000000000000000000000,
500000000000000000000000000800000000000000000000,
#GOGOSTART
100000000000200000000000200000000000000000000000,
100000000000100000000000300000000000000000000000,
100000000000200000000000200000000000000000000000,
100000000000100000000000400000000000400000000000,
100000000000200000000000200000000000000000000000,
100000000000100000000000300000000000000000000000,
100000000000200000000000200000000000000000000000,
100000000000100000000000400000000000400000000000,
000000900000000000000000000000000000000000000000,
000000000000000000000000000800000000000000000000,
#GOGOEND
#END
STYLE:Single
BALLOON:6,12
SCOREINIT:580
SCOREDIFF:218
#START
100000000000000000200000000000000000000000000000,
200000000000200000000000200000000000000000000000,
100000000000000000200000000000000000000000000000,
100000000000000000200000000000000000000000000000,
100000000000000000000400000000000000000000000000,
100000000000000000200000000000000000200000000000,
100000000000000000200000000000000000000000000000,
100000000000100000000000000000000000000000000000,
400000000000000000000000000000000000000000000000,
#GOGOSTART
100000000000100000000000100000000000000000000000,
100000000000100000000000300000000000000000000000,
100000000000100000000000100000000000000000000000,
100000000000100000000000400000000000400000000000,
100000000000100000000000100000000000000000000000,
100000000000100000000000300000000000000000000000,
100000000000100000000000100000000000000000000000,
100000000000100000000000400000000000400000000000,
#GOGOEND
200000000000200000000000000000200000000000000000,
200000000000200000000000000000100000000000000000,
200000000000200000000000000000200000000000000000,
200000000000200000000000000000100000000000000000,
200000000000000000200000000000200000000000000000,
200000000000000000200000000000100000000000000000,
200000000000000000200000000000200000000000000000,
500000000000000000000000000800000000000000000000,
400000000000000000000000000000000000000000000000,
#GOGOSTART
100000000000200000000000100000000000000000000000,
200000000000100000000000300000000000000000000000,
100000000000200000000000100000000000000000000000,
100000000000100000000000400000000000400000000000,
100000000000200000000000100000000000000000000000,
100000000000100000000000300000000000000000000000,
100000000000200000000000100000000000000000000000,
100000000000100000000000400000000000400000000000,
#GOGOEND
200000000000200000000000000000200000000000000000,
200000000000200000000000000000100000200000000000,
200000000000200000000000000000200000000000000000,
200000000000200000000000000000100000200000000000,
200000000000000000200000000000200000000000000000,
200000000000000000200000000000100000200000000000,
200000000000000000200000000000200000000000000000,
700000000000000000000000000000000800000000000000,
400000000000000000000000000000000000000000000000,
100000000000000000100000100000000000000000000000,
100000000000200000100000000000000000000000000000,
100000000000000000100000100000000000000000000000,
100000000000100000200000000000000000000000000000,
100000000000000000100000100000000000000000000000,
100000000000200000100000000000000000000000000000,
100000000000000000100000100000000000000000000000,
500000000000000000000000000800000000000000000000,
#GOGOSTART
100000000000200000000000200000000000000000000000,
100000000000100000000000300000000000000000000000,
100000000000200000000000200000000000000000000000,
100000000000100000000000400000000000400000000000,
100000000000200000000000200000000000000000000000,
100000000000100000000000300000000000000000000000,
100000000000200000000000200000000000000000000000,
100000000000100000000000400000000000400000000000,
000000900000000000000000000000000000000000000000,
000000000000000000000000000800000000000000000000,
#GOGOEND
#END