373 lines
4.4 KiB
Plaintext
373 lines
4.4 KiB
Plaintext
//TJADB Project
|
|
TITLE:SORA-III Heliopause
|
|
TITLEJA:SORA-III ヘリオポーズ
|
|
SUBTITLE:--Satoshi Ishikawa
|
|
SUBTITLEJA:
|
|
BPM:135
|
|
WAVE:SORA-III Heliopause.ogg
|
|
OFFSET:-1.980
|
|
DEMOSTART:65.977
|
|
|
|
//shinuchi: 5740/4410/2430/1760
|
|
|
|
COURSE:Oni
|
|
LEVEL:8
|
|
BALLOON:10,16
|
|
SCOREINIT:620,1860
|
|
SCOREDIFF:160
|
|
|
|
//9* before AC16 release.
|
|
|
|
#START
|
|
|
|
|
|
3,
|
|
10000001,
|
|
1,
|
|
#BPMCHANGE 135.18
|
|
70000800,
|
|
#BPMCHANGE 135
|
|
1001002000102100,
|
|
1001002010102110,
|
|
1001002000102101,
|
|
100000000200000000100000100000100000200000101010,
|
|
1021002000102100,
|
|
1021002010102100,
|
|
1021002000102100,
|
|
1,
|
|
3001201011012012,
|
|
1001201011012010,
|
|
1001201011012012,
|
|
100000000100200000100000100100000100200000101010,
|
|
1001201011012012,
|
|
1001201011112010,
|
|
1001201011012012,
|
|
1021201012212010,
|
|
3021102012102010,
|
|
1021102012102010,
|
|
1021102012112010,
|
|
1021102012112010,
|
|
1021102012112110,
|
|
1021102012112110,
|
|
1021102012112110,
|
|
500000000000000000000008000000100000200000100100,
|
|
10000001,
|
|
1,
|
|
10000001,
|
|
100000000000000000000111,
|
|
10000001,
|
|
1,
|
|
10000001,
|
|
1,
|
|
|
|
#GOGOSTART
|
|
3002102012201020,
|
|
1002102212201020,
|
|
1002102012201020,
|
|
100000000200100000200200100200200000100000101010,
|
|
1002102012201020,
|
|
1002102212201020,
|
|
1002001000102000,
|
|
400000100000100000400000100100100100101010101010,
|
|
1011201012212101,
|
|
1011201012212102,
|
|
1011201012212101,
|
|
1011201012212102,
|
|
1011201012122101,
|
|
1011201012122102,
|
|
1022010010227000,
|
|
0008,
|
|
|
|
#GOGOEND
|
|
3002001000102010,
|
|
1002001002201110,
|
|
1012001002021110,
|
|
1012001011020220,
|
|
3012001012101110,
|
|
1012001022010110,
|
|
100000100200000200100000100020002000100020002000,
|
|
1012001011021110,
|
|
3004003000102012,
|
|
1002001001211120,
|
|
3004003001201011,
|
|
1002001021020120,
|
|
3004003001102012,
|
|
1012001001212110,
|
|
3012003004022040,
|
|
100000000100000100100000100100100100101010101010,
|
|
1,
|
|
|
|
#END
|
|
|
|
|
|
|
|
COURSE:Hard
|
|
LEVEL:7
|
|
BALLOON:6,12
|
|
SCOREINIT:650,2630
|
|
SCOREDIFF:183
|
|
|
|
|
|
#START
|
|
|
|
|
|
3,
|
|
10000001,
|
|
1,
|
|
#BPMCHANGE 135.18
|
|
70000800,
|
|
#BPMCHANGE 135
|
|
3001002000101100,
|
|
1001002000102200,
|
|
1001002000101100,
|
|
1001002000102200,
|
|
1001002010101100,
|
|
1001002010102200,
|
|
1001002010101100,
|
|
1,
|
|
3001102010011000,
|
|
1001102010022000,
|
|
1001102010011000,
|
|
1001102010022020,
|
|
1001102010011000,
|
|
1001102010022000,
|
|
1001102010011000,
|
|
1440,
|
|
3001102010022000,
|
|
1001102010011000,
|
|
1001102010022000,
|
|
1001102010011010,
|
|
1001102010022000,
|
|
1001102010011000,
|
|
1001102010022020,
|
|
50000800,
|
|
30000001,
|
|
1,
|
|
10000001,
|
|
1,
|
|
30000001,
|
|
1,
|
|
10000001,
|
|
1,
|
|
|
|
#GOGOSTART
|
|
3002201010022010,
|
|
1002201010012000,
|
|
1002201010022010,
|
|
1002201010012000,
|
|
3002201010022010,
|
|
1002201010012000,
|
|
1002201010022010,
|
|
50000800,
|
|
3002201010112010,
|
|
1002201010111000,
|
|
1002201010112010,
|
|
1002201010111000,
|
|
1002201010112010,
|
|
1002201010111000,
|
|
11210170,
|
|
0008,
|
|
|
|
#GOGOEND
|
|
3002001000102010,
|
|
1002001002201000,
|
|
1002001000102010,
|
|
1002001002201000,
|
|
3002001001102010,
|
|
1002001002201000,
|
|
100000000200000000100000100010001000100010001000,
|
|
1002001001102000,
|
|
3003004000101011,
|
|
1001002001011100,
|
|
3003004000101011,
|
|
1001002001011100,
|
|
3003004000102010,
|
|
1001002001011100,
|
|
3003004001111010,
|
|
1001005000000080,
|
|
3,
|
|
|
|
|
|
#END
|
|
|
|
|
|
COURSE:Normal
|
|
LEVEL:6
|
|
BALLOON:6,12,10,20
|
|
SCOREINIT:940,4900
|
|
SCOREDIFF:298
|
|
|
|
|
|
#START
|
|
|
|
|
|
3,
|
|
10000001,
|
|
1,
|
|
#BPMCHANGE 135.18
|
|
70000800,
|
|
#BPMCHANGE 135
|
|
30020110,
|
|
10020000,
|
|
10020110,
|
|
10020000,
|
|
30020110,
|
|
10020000,
|
|
10020110,
|
|
1,
|
|
3000000010011000,
|
|
1210,
|
|
1000000010011000,
|
|
1210,
|
|
1000000010011000,
|
|
1210,
|
|
1000000010011000,
|
|
1440,
|
|
3000200010011000,
|
|
1210,
|
|
1000200010011000,
|
|
1210,
|
|
1000200010011000,
|
|
1210,
|
|
1000200010011000,
|
|
50000800,
|
|
30000001,
|
|
1,
|
|
10000001,
|
|
1,
|
|
30000001,
|
|
1,
|
|
10000001,
|
|
1,
|
|
|
|
#GOGOSTART
|
|
3001100010011000,
|
|
1002200000000000,
|
|
1001100010011000,
|
|
1002200000000000,
|
|
1001100010011000,
|
|
1002200000000000,
|
|
7,
|
|
00000800,
|
|
3001100010011000,
|
|
1002200000000000,
|
|
1001100010011000,
|
|
1002200000000000,
|
|
1001100010011000,
|
|
1002200000000000,
|
|
30210170,
|
|
0008,
|
|
|
|
#GOGOEND
|
|
3002000000002010,
|
|
1002000000000000,
|
|
1002000000002010,
|
|
1002000000000000,
|
|
3002001000002010,
|
|
1002000000000000,
|
|
1002001050000080,
|
|
1002001000000000,
|
|
3001001000101000,
|
|
1001002000000000,
|
|
1001001000101000,
|
|
1001002000000000,
|
|
3001001000101000,
|
|
1001002000000000,
|
|
7,
|
|
0,
|
|
8,
|
|
|
|
|
|
#END
|
|
|
|
|
|
COURSE:Easy
|
|
LEVEL:4
|
|
BALLOON:6,12,10,18
|
|
SCOREINIT:680,6500
|
|
SCOREDIFF:233
|
|
|
|
|
|
#START
|
|
|
|
|
|
3,
|
|
10000001,
|
|
1,
|
|
#BPMCHANGE 135.18
|
|
70000800,
|
|
#BPMCHANGE 135
|
|
30010000,
|
|
10010000,
|
|
10010000,
|
|
10010000,
|
|
30010010,
|
|
10010010,
|
|
10010010,
|
|
1,
|
|
3211,
|
|
1210,
|
|
1211,
|
|
1210,
|
|
1211,
|
|
1210,
|
|
1211,
|
|
50000800,
|
|
3212,
|
|
1210,
|
|
1212,
|
|
1210,
|
|
1212,
|
|
1210,
|
|
1212,
|
|
50000800,
|
|
30000001,
|
|
1,
|
|
10000001,
|
|
1,
|
|
30000001,
|
|
1,
|
|
10000001,
|
|
1,
|
|
|
|
#GOGOSTART
|
|
3212,
|
|
1202,
|
|
1212,
|
|
1200,
|
|
1212,
|
|
1202,
|
|
7,
|
|
00000800,
|
|
3212,
|
|
1202,
|
|
1212,
|
|
1202,
|
|
1212,
|
|
1200,
|
|
30003070,
|
|
0008,
|
|
|
|
#GOGOEND
|
|
30000001,
|
|
1,
|
|
10000001,
|
|
1,
|
|
30000001,
|
|
1,
|
|
10000001,
|
|
1,
|
|
30020010,
|
|
10020000,
|
|
10020010,
|
|
10020000,
|
|
30020010,
|
|
10020000,
|
|
7,
|
|
0,
|
|
8,
|
|
|
|
|
|
#END
|
|
|