302 lines
2.7 KiB
Plaintext
302 lines
2.7 KiB
Plaintext
//TJADB Project
|
|
TITLE:Tentai Kansoku -New Audio-
|
|
TITLEJA:天体観測 -New Audio-
|
|
SUBTITLE:--BUMP OF CHICKEN
|
|
BPM:163
|
|
WAVE:Tentai Kansoku -New Audio-.ogg
|
|
OFFSET:-7.479
|
|
DEMOSTART:66.374
|
|
|
|
COURSE:Oni
|
|
LEVEL:6
|
|
SCOREINIT:680
|
|
SCOREDIFF:190
|
|
|
|
|
|
#START
|
|
|
|
|
|
01112001,
|
|
1010200020102011,
|
|
11112021,
|
|
11202120,
|
|
21112111,
|
|
1010101010101011,//6
|
|
1000100110001001,
|
|
1010201000101001,
|
|
1000100110001001,
|
|
1010201000101110,
|
|
0010101022202010,
|
|
1010222010102000,
|
|
0010101022202010,
|
|
1010222010102000,
|
|
30111113,
|
|
03030221,//16
|
|
10211010,
|
|
10211220,
|
|
10211010,
|
|
10211220,
|
|
10110101,
|
|
12011200,
|
|
10101011,
|
|
1000101010202011,
|
|
11112021,
|
|
11202121,
|
|
30112021,
|
|
11202121,
|
|
30111203,
|
|
03030300,
|
|
30112021,
|
|
1010200020102011,
|
|
1010101110101011,
|
|
1020201110202011,
|
|
1010101110101011,
|
|
1000102010101011,
|
|
1010101110101011,
|
|
1020201110202011,
|
|
1020102010111011,
|
|
1020102010111000,//40
|
|
|
|
#GOGOSTART
|
|
1010202011102010,
|
|
30303220,
|
|
1010202011102020,
|
|
30303222,
|
|
10211021,
|
|
10211021,
|
|
10211111,
|
|
1010101010102220,
|
|
1010202011102010,
|
|
30303220,
|
|
1010202011102020,
|
|
3000300030202011,
|
|
1000201010002011,
|
|
1000201010002011,
|
|
1000101110111010,
|
|
0010222020201000,
|
|
30300044,
|
|
|
|
#GOGOEND
|
|
|
|
|
|
#END
|
|
|
|
|
|
COURSE:Hard
|
|
LEVEL:4
|
|
SCOREINIT:740
|
|
SCOREDIFF:228
|
|
|
|
#START
|
|
01111000,
|
|
11101120,
|
|
01111000,
|
|
11101120,
|
|
01111000,
|
|
11101120,//6
|
|
1000100110001000,
|
|
11010000,
|
|
1000100110001000,
|
|
11010000,
|
|
01112000,
|
|
11101120,
|
|
01112000,
|
|
11101120,
|
|
30111111,
|
|
03030001,
|
|
10011010,
|
|
10111020,
|
|
10011010,
|
|
10111020,
|
|
10110101,
|
|
11011100,
|
|
10101011,
|
|
10111000,
|
|
30112010,
|
|
11101120,
|
|
30112010,
|
|
11101120,
|
|
30110003,
|
|
03030300,
|
|
10112001,
|
|
10112000,
|
|
30011001,
|
|
11011110,
|
|
10100011,
|
|
1111,
|
|
30011001,
|
|
11011101,
|
|
10101110,
|
|
1111,//40
|
|
|
|
#GOGOSTART
|
|
11201120,
|
|
3330,
|
|
11201120,
|
|
3330,
|
|
10112010,
|
|
11201102,
|
|
20101120,
|
|
20110000,
|
|
11201120,
|
|
3330,
|
|
11201120,
|
|
3330,
|
|
10112010,
|
|
11202201,
|
|
10110101,
|
|
01111010,
|
|
30300033,
|
|
|
|
#GOGOEND
|
|
,
|
|
,
|
|
,
|
|
,
|
|
#END
|
|
|
|
COURSE:Normal
|
|
LEVEL:5
|
|
SCOREINIT:910
|
|
SCOREDIFF:330
|
|
|
|
#START
|
|
0110,
|
|
1111,
|
|
0110,
|
|
1111,
|
|
0110,
|
|
2222,//6
|
|
1011,
|
|
10010000,
|
|
1011,
|
|
10010000,
|
|
0110,
|
|
1111,
|
|
0110,
|
|
2222,
|
|
1110,
|
|
500000000000000000000008000000000000000000000000,
|
|
11,
|
|
1110,
|
|
12,
|
|
2220,
|
|
11,
|
|
33,
|
|
1111,
|
|
2220,//24
|
|
31,
|
|
1110,
|
|
32,
|
|
2220,
|
|
30001003,
|
|
03030300,
|
|
10111000,
|
|
20222000,
|
|
12,
|
|
11001100,
|
|
1100,
|
|
1111,
|
|
12,
|
|
11001100,
|
|
33,
|
|
3,//40
|
|
|
|
#GOGOSTART
|
|
11101110,
|
|
3330,
|
|
11101110,
|
|
3330,
|
|
10111000,
|
|
1110,
|
|
1111,
|
|
1100,
|
|
11101110,
|
|
3330,
|
|
11101110,
|
|
3330,
|
|
10111000,
|
|
1100,
|
|
33,
|
|
2220,
|
|
30300033,
|
|
|
|
#GOGOEND
|
|
,
|
|
,
|
|
,
|
|
,
|
|
#END
|
|
|
|
COURSE:Easy
|
|
LEVEL:3
|
|
SCOREINIT:700
|
|
SCOREDIFF:320
|
|
|
|
#START
|
|
0110,
|
|
1110,
|
|
0110,
|
|
1110,
|
|
0110,
|
|
2220,//6
|
|
11,
|
|
10010000,
|
|
11,
|
|
10010000,
|
|
0110,
|
|
1110,
|
|
0110,
|
|
2220,
|
|
11,
|
|
500000000000000000000008000000000000000000000000,
|
|
1,
|
|
1110,
|
|
1,
|
|
2220,
|
|
1,
|
|
33,
|
|
1110,
|
|
2220,//24
|
|
3,
|
|
1110,
|
|
3,
|
|
2220,
|
|
3,
|
|
44,
|
|
3,
|
|
2220,//32
|
|
12,
|
|
12,
|
|
1100,
|
|
1110,
|
|
12,
|
|
12,
|
|
33,
|
|
3,//40
|
|
|
|
#GOGOSTART
|
|
1110,
|
|
3330,
|
|
2220,
|
|
4440,
|
|
11,
|
|
1100,
|
|
11,
|
|
1100,
|
|
1110,
|
|
3330,
|
|
2220,
|
|
4440,
|
|
11,
|
|
1100,
|
|
11,
|
|
1110,
|
|
1103,//57
|
|
|
|
#GOGOEND
|
|
,
|
|
,
|
|
,
|
|
,
|
|
#END |