Files
TJA-by-song-no/tja/271.tja
2026-03-07 15:37:31 +09:00

1021 lines
9.9 KiB
Plaintext
Raw Blame History

This file contains ambiguous Unicode characters
This file contains Unicode characters that might be confused with other characters. If you think that this is intentional, you can safely ignore this warning. Use the Escape button to reveal them.
//TJADB Project
TITLE:Extreme MGG★★★
TITLEJA:Extreme MGG★★★
SUBTITLE:--COSIO/Music GunGun! 2
SUBTITLEJA:「ミュージックガンガン2」より
BPM:160
WAVE:Extreme MGG.ogg
OFFSET:-1.800
DEMOSTART:13.798
COURSE:Edit
LEVEL:9
BALLOON:12
SCOREINIT:440
SCOREDIFF:110
#START
1002201000221000,
1002201000221020,
1002201000221000,
1002201000221020,
1002201000221000,
1002201000221020,
1002201000221000,
7000000000008000,
1012021010210120,
1022011212212211,
1012021010210120,
1022011211211212,
1011022010110220,
1011022010110220,
1011022010110220,
1121121122122122,
1012021010210120,
1022011212212211,
1012021010210120,
1022011211211212,
1011022010110220,
1011022010110220,
1011022010110220,
1121121122122122,
2001102010011020,
2001102010011111,
2001102010011020,
2001102010201111,
1001002010010020,
1001002010010020,
1001002010010020,
2211221121212121,
#BPMCHANGE 240
#MEASURE 3/4
100010200010,
101010001020,
001010101000,
102000101010,
202010102020,
100010200010,
101010001020,
001010101000,
102000101010,
101020101020,
#BPMCHANGE 200
#MEASURE 5/4
10001000102010101010,
10001010202010101010,
10001010201010201020,
20102020102010201000,
#BPMCHANGE 140
#MEASURE 7/8
10221021102210,
11102201112211,
10221021102210,
11102201121122,
#BPMCHANGE 160
#MEASURE 4/4
1000100000101010,
1000101000101010,
1000101000101010,
0010202010201020,
#GOGOSTART
3000000000000000,
1010202110102021,
1010202110102021,
1010202110102020,
3000300301221120,
1122112011221120,
1122112011221120,
1122112211221120,
3000300301221120,
1012021020210120,
1012021122112112,
1012021020210120,
1012021111221212,
1011202210112022,
1012012211221212,
1011202210112022,
1012012211221122,
1011202210112022,
1012012211221212,
1011202210112022,
1012012211221122,
2001102010011020,
2001102010111122,
2001102010111020,
2001102012212212,
#GOGOEND
1000200020002000,
1000000000102020,
#BPMCHANGE 120
#SCROLL 1.33
1000000000202020,
,
,
#BPMCHANGE 160
#SCROLL 2
3,
#END
COURSE:Oni
LEVEL:5
STYLE:Double
BALLOON:4,4,4
SCOREINIT:2500
SCOREDIFF:0
#START P1
1,
1,
10010010,
10010010,
10010010,
1002001000201000,
1002001000201000,
3,
1011002000000000,
1011022000002220,
0000000010110020,
0000000011100000,
0221,
10000111,
10000222,
0000000011102220,
0000000010110020,
0000000011100000,
1011002000000000,
1011022000002220,
0010010000100100,
0010010000100100,
0010010000100100,
1011022000000000,
12020202,
12021122,
12020202,
12021121,
1002001010020010,
1002001010020010,
1002001010020010,
500000000000000000000000000000000008000000000000,
#BPMCHANGE 240
#MEASURE 3/4
101201,
1110,
101,
120120,
002202,
1110,
001012,
011010,
110,
220020,
#BPMCHANGE 200
#MEASURE 5/4
3020111221,
1020111112,
1020111221,
1020111244,
#BPMCHANGE 140
#MEASURE 7/8
10120110101010,
00101201200022,
10101000101201,
10101010002200,
#BPMCHANGE 160
#MEASURE 4/4
3221,
10000111,
10201121,
10211212,
#GOGOSTART
0000111000002220,
1122,
1122,
11221122,
11221122,
11112222,
11112222,
11221122,
11221122,
1002010010020100,
100000000200000200000000500000000000000008000000,
11011101,
11017008,
1002010010020100,
100000000200000100000000500000000000000008000000,
11021102,
11027008,
1002010010020100,
100000000200000100000000500000000000000008000000,
12021202,
12027008,
0221,
10000111,
1002001010020010,
1002001000000000,
#GOGOEND
3221,
10000111,
#BPMCHANGE 120
#SCROLL 1.33
10000444,
,
,
#BPMCHANGE 160
#SCROLL 2.0
0000111100220022,
#END
#START P2
10010010,
10010010,
1,
1,
1002001000201000,
10010010,
1002001000201000,
3,
0000000010110020,
0000000011100000,
1011002000000000,
1011022000002220,
0010010000100100,
0010010000100100,
0010010000100100,
1011022000000000,
1011002000000000,
1011022000002220,
0000000010110020,
0000000011100000,
0221,
10000111,
10000222,
0000000011102220,
1002001010020010,
1002001010020010,
1002001010020010,
1002001010002000,
12020202,
12021122,
12020202,
500000000000000000000000000000000008000000000000,
#BPMCHANGE 240
#MEASURE 3/4
111,
001012,
011010,
110,
220020,
101201,
111,
101,
120120,
002202,
#BPMCHANGE 200
#MEASURE 5/4
02211,
0001111000,
0022112211,
1222333444,
#BPMCHANGE 140
#MEASURE 7/8
10101000101201,
10101010002200,
10120110101010,
00101201200022,
#BPMCHANGE 160
#MEASURE 4/4
00201121,
10211212,
10000222,
01112222,
#GOGOSTART
1110000022200000,
11221122,
11221122,
1122,
1122,
11221122,
11221122,
11112222,
11112222,
11011101,
100000100000000000100000500000000000000008000000,
1002010010020100,
1002020070000080,
11021102,
100000100000000000200000500000000000000008000000,
1002010010020100,
1002010070000080,
12021202,
100000200000000000200000500000000000000008000000,
1002010010020100,
1002010070000080,
1002001010020010,
1002001010020010,
10000222,
0000000011102220,
#GOGOEND
3221,
10000111,
#BPMCHANGE 120
#SCROLL 1.33
10000444,
,
,
#BPMCHANGE 160
#SCROLL 2.0
1111000022002200,
#END
STYLE:Single
BALLOON:12,4,13,14,4,5,6,15
SCOREINIT:660
SCOREDIFF:170
#START
3,
3,
3,
3,
3,
3,
3,
7000000000000080,
1001002010010020,
1001002050000080,
1001002010010020,
1001002050000080,
0443,
30000333,
30000444,
00005008,
1001002010010020,
1001002050000080,
1001002010010020,
1001002050000080,
0443,
30000333,
30000444,
00007008,
1002000010020000,
1002000010020000,
1002000010020000,
1002000010102000,
1002001010020010,
1002001010020010,
1002001010020010,
7000000000080000,
#BPMCHANGE 240
#MEASURE 3/4
101201,
101012,
011010,
120120,
221122,
101201,
101012,
011010,
120120,
221122,
#BPMCHANGE 200
#MEASURE 5/4
0040403030,
0001113000,
0022112033,
4433443333,
#BPMCHANGE 140
#MEASURE 7/8
0011101,
1010122,
1011101,
1010112,
#BPMCHANGE 160
#MEASURE 4/4
00404030,
30000333,
30000444,
03334444,
#GOGOSTART
,
11112222,
11112222,
11221122,
12121212,
50000008,
70000008,
50000008,
60000008,
1012010010120100,
1012020050000080,
1012010010120100,
1012020070000080,
1012010020110200,
1012010050000080,
1012010020110200,
1012010070000080,
1021010010210200,
1021010050000080,
1021010010210200,
1021010070000080,
1002001010020020,
1002001010020020,
1002001010020020,
1002002030303030,
#GOGOEND
3443,
30000333,
#BPMCHANGE 120
#SCROLL 1.33
30000444,
,
0,
#BPMCHANGE 160
#SCROLL 2
70000080,
#END
COURSE:Hard
LEVEL:3
STYLE:Single
BALLOON:10,120
SCOREINIT:870
SCOREDIFF:250
#START
3,
3,
3,
3,
3,
3,
3,
70000008,
1001001020020020,
1001001020201010,
1001001020020020,
1001001010201020,
0000200020001000,
10000111,
10000222,
00001111,
1001001020020020,
1001001020201010,
1001001020020020,
1001001010201020,
0221,
10000111,
10000222,
00001111,
1002000010020000,
1002000010020000,
1002000010020000,
1002000010102000,
1002000010020000,
1002000010020000,
1002000010020000,
50000008,
#BPMCHANGE 240
#MEASURE 3/4
011,
011,
011,
011,
011,
011,
011,
011,
011,
011,
#BPMCHANGE 200
#MEASURE 5/4
02211,
0001010000,
01211,
21211,
#BPMCHANGE 140
#MEASURE 7/8
0011101,
1010110,
1011101,
1010112,
#BPMCHANGE 160
#MEASURE 4/4
0221,
10000101,
00000202,
01010202,
#GOGOSTART
,
1113,
1113,
1113,
1113,
1,
1,
1,
3,
9,
,
,
,
,
,
,
,
,
9,
,
8,
0221,
10000111,
10000222,
00001111,
#GOGOEND
0221,
10000111,
#BPMCHANGE 120
#SCROLL 1.33
10000222,
,
,
#BPMCHANGE 160
#SCROLL 1
3,
,
,
#END
STYLE:Double
BALLOON:10,120
SCOREINIT:1470
SCOREDIFF:578
#START P1
1,
1,
1,
1,
1,
1,
1,
70000008,
1,
1001,
01,
01,
0200,
00000111,
10000200,
01,
0000000010010020,
0011,
1001002000000000,
1001002000100010,
0010010000100100,
0010010000100100,
0010010000100100,
3,
1,
01,
,
1002,
1002001010020010,
1002001010020010,
1002001010020010,
50000000000000000000000000080000,
#BPMCHANGE 240
#MEASURE 3/4
0,
010,
001,
,
2,
1,
010,
001,
,
0,
#BPMCHANGE 200
#MEASURE 5/4
02010,
10101,
02020,
20200,
#BPMCHANGE 140
#MEASURE 7/8
1000101,
1010002,
00000100000001,
00000001000000,
#BPMCHANGE 160
#MEASURE 4/4
0221,
1001,
00000200,
03000000,
#GOGOSTART
3,
1122,
1122,
11112222,
11112222,
1,
1,
1,
1,
9,
,
,
,
,
,
,
,
,
9,
,
8,
0200,
00000100,
00000200,
,
#GOGOEND
0221,
10000100,
#BPMCHANGE 120
#SCROLL 1.33
10000200,
,
,
#BPMCHANGE 160
#SCROLL 1
3,
,
,
#END
BALLOON:10,120
SCOREINIT:1470
SCOREDIFF:578
#START P2
1,
1,
1,
1,
1,
1,
1,
70000008,
01,
01,
1,
1001,
0010010000100100,
0010010000100100,
0010010000100100,
3,
1001002000000000,
1001002000100010,
0000000010010020,
0011,
0200,
00000111,
10000200,
03,
1002001010020010,
1002001010020010,
1002001010020010,
1002001010102010,
1,
1001,
1,
50000000000000000000000000080000,
#BPMCHANGE 240
#MEASURE 3/4
0,
,
010,
001,
010,
,
1,
010,
01,
,
#BPMCHANGE 200
#MEASURE 5/4
02211,
0001000000,
02000,
,
#BPMCHANGE 140
#MEASURE 7/8
1000100,
0100022,
1000100,
0100110,
#BPMCHANGE 160
#MEASURE 4/4
0,
1,
10000003,
0,
#GOGOSTART
3,
1,
1,
1,
1,
1122,
1122,
11112222,
11112222,
9,
,
,
,
,
,
,
,
,
9,
,
8,
0001,
00000001,
00000001,
,
#GOGOEND
0221,
10000100,
#BPMCHANGE 120
#SCROLL 1.33
10000200,
,
,
#BPMCHANGE 160
#SCROLL 1
3,
,
,
#END
COURSE:Normal
LEVEL:3
BALLOON:8,110
SCOREINIT:1020
#START
1,
1,
1,
1,
1,
1,
1,
7000000000000800,
11,
10001110,
11,
10002220,
0221,
10000110,
10000222,
,
11,
10001110,
11,
10002220,
0221,
10000110,
10000222,
,
11,
10001110,
11,
10002220,
1,
1001,
1,
50000008,
#BPMCHANGE 240
#MEASURE 3/4
1,
010,
001,
,
111,
1,
010,
001,
,
111,
#BPMCHANGE 200
#MEASURE 5/4
01111,
0002020000,
01110,
11100,
#BPMCHANGE 140
#MEASURE 7/8
1000100,
0100011,
1000100,
0100011,
#BPMCHANGE 160
#MEASURE 4/4
0221,
1001,
10000111,
,
#GOGOSTART
3,
11,
11,
11,
3,
1111,
1111,
11101110,
3,
9,
,
,
,
,
,
,
,
,
9,
,
8,
0221,
1001,
10000111,
,
#GOGOEND
0221,
1001,
#BPMCHANGE 120
#SCROLL 1.33
10000222,
,
,
#BPMCHANGE 160
#SCROLL 1
3,
,
,
#END
COURSE:Easy
LEVEL:3
BALLOON:6,6,6,110
SCOREINIT:880
SCOREDIFF:314
#START
1,
1,
1,
1,
1,
1,
1,
7000000000000800,
11,
1011,
11,
10005008,
0222,
2001,
1002,
2,
11,
1011,
11,
10005008,
0222,
2001,
1002,
7000000000000800,
11,
1011,
11,
1011,
1,
1001,
1,
50000008,
#BPMCHANGE 240
#MEASURE 3/4
,
010,
001,
,
58,
1,
010,
001,
,
58,
#BPMCHANGE 200
#MEASURE 5/4
01011,
0002020000,
01110,
11100,
#BPMCHANGE 140
#MEASURE 7/8
1000100,
0100000,
1000100,
00100050000800,
#BPMCHANGE 160
#MEASURE 4/4
0111,
1001,
1,
70000000000800,
#GOGOSTART
3,
11,
11,
11,
3,
1111,
1111,
1111,
3,
9,
,
,
,
,
,
,
,
,
9,
,
8,
0222,
2001,
1002,
2,
#GOGOEND
0222,
2001,
#BPMCHANGE 120
#SCROLL 1.33
10000202,
,
,
#BPMCHANGE 160
#SCROLL 1
3,
,
,
#END