Files
TJA-by-song-no/tja/422.tja
2026-03-07 15:37:31 +09:00

774 lines
9.2 KiB
Plaintext
Raw Blame History

This file contains ambiguous Unicode characters
This file contains Unicode characters that might be confused with other characters. If you think that this is intentional, you can safely ignore this warning. Use the Escape button to reveal them.
//TJADB Project
TITLE:NeGa/PoSi*Love/Call
TITLEJA:NeGaPoSi* ラブ/コール
SUBTITLE:--Diao ye zong/Touhou Project
BPM:169
OFFSET:-0.022
WAVE:NeGa PoSi Love Call.ogg
DEMOSTART:83.453
COURSE:Edit
LEVEL:8
SCOREINIT:390
SCOREDIFF:95
#START
02020202,
30202201,
02101020,
10212212,
02022020,
30202201,
02121020,
10212212,
0020200020222222,
1011201022102010,
0010201022202220,
1011202210112210,
0010201022202000,
1011201022102010,
0010201022202220,
1011202211112040,
04040330,
1010201022201022,
#MEASURE 3/4
202010102011,
#MEASURE 4/4
2010202220102211,
#MEASURE 3/4
201020222010,
#MEASURE 4/4
2211225000000000,
#MEASURE 3/4
000000000000000000000008000000000000,
#MEASURE 4/4
1022101020112020,
#MEASURE 3/4
334,
#MEASURE 4/4
1020201022201022,
#MEASURE 3/4
202010102011,
#MEASURE 4/4
2010202220102211,
#MEASURE 3/4
201020222010,
#MEASURE 4/4
2210202211225000,
#MEASURE 3/4
,
#MEASURE 4/4
000000000000000000000000000000000008000000000000,
#MEASURE 3/4
020222,
#MEASURE 4/4
11210121,
1111102222201111,
1210221012102030,
00000222,
1120201120201012,
#MEASURE 3/4
202210102211,
#MEASURE 4/4
2010202120102211,
#MEASURE 3/4
201020212010,
#MEASURE 4/4
2211225000000000,
#MEASURE 3/4
000000000000000000000008000000000000,
#MEASURE 4/4
1022101020112020,
#MEASURE 3/4
334,
#MEASURE 4/4
1120201120201012,
#MEASURE 3/4
202210102211,
#MEASURE 4/4
2010202120102211,
#MEASURE 3/4
201020212010,
#MEASURE 4/4
2210202211225000,
#MEASURE 3/4
,
#MEASURE 4/4
000000000000000000000000000000000008000000000000,
#MEASURE 7/8
20200022202220,
#MEASURE 4/4
10211021,
1010200020222020,
10211021,
1020200020112010,
500000000000000000000008000000100000200000100000,
0010221022122010,
33034033,
03403343,
600000000000000000000008000000200000200000200000,
0010101000222222,//63
#GOGOSTART
1120201210112011,
1120201000102011,
1011201110112011,
1010202211202000,
1120201122102010,
0010202211222010,
34434434,
0030004000222022,
1120201210112011,
1120201000102012,
2022101220221012,
2022101220004000,
1111101111201112,
2011222012222030,
30403343,
0030403000222222,//79
#GOGOEND
#BPMCHANGE 169.5
1011202020002022,
100100100000222200000111,
1,
#BPMCHANGE 165.5
2000200011122211,//83
#GOGOSTART
#BPMCHANGE 166
1000101022202010,
1022101020221010,
1020222020221010,
11202000,
1000101022202010,
1022101020221010,
1010222010222010,
11212000,
1022101022202010,
1011202220221010,
1010222010102210,
11212000,
1022101022202010,
1011202220221010,
1010222010221010,
200200100100222222222200,//99
#GOGOEND
3,
#END
COURSE:Oni
LEVEL:6
BALLOON:7
SCOREINIT:430
SCOREDIFF:103
#START
,
10202021,
01202000,
10112211,
02022020,
10202021,
01212000,
10112211,
0020200022202220,
1000201022202010,
01212020,
1011101110111010,
0010201022202000,
1000201022202010,
01212020,
1011101110111040,
04040330,
1010201010102011,
#MEASURE 3/4
112120,
#MEASURE 4/4
1010201010102011,
#MEASURE 3/4
101020101022,
#MEASURE 4/4
21150000,
#MEASURE 3/4
000000000000000000000008000000000000,
#MEASURE 4/4
11210121,
#MEASURE 3/4
443,
#MEASURE 4/4
1010201010102011,
#MEASURE 3/4
112120,
#MEASURE 4/4
1010201010102011,
#MEASURE 3/4
101020101022,
#MEASURE 4/4
2010102220105000,
#MEASURE 3/4
,
#MEASURE 4/4
000000000000000000000000000000000008000000000000,
#MEASURE 3/4
020222,
#MEASURE 4/4
11210121,
2011102220111022,
22010101,
2020202022200020,
1010201010102011,
#MEASURE 3/4
112120,
#MEASURE 4/4
1010201010102011,
#MEASURE 3/4
101020101022,
#MEASURE 4/4
21150000,
#MEASURE 3/4
000000000000000000000008000000000000,
#MEASURE 4/4
11210121,
#MEASURE 3/4
443,
#MEASURE 4/4
1010201010102011,
#MEASURE 3/4
112120,
#MEASURE 4/4
1010201010102011,
#MEASURE 3/4
101020101022,
#MEASURE 4/4
2010102220105000,
#MEASURE 3/4
,
#MEASURE 4/4
000000000000000000000000000000000008000000000000,
#MEASURE 7/8
20200022202220,
#MEASURE 4/4
10211021,
11202022,
10211021,
1020200020222020,
1000201000102011,
1010201000111020,
33033033,
03303333,
600000000000000000000008000000200000200000200000,
0020202000222011,//63
#GOGOSTART
1000201110202011,
1000201000102011,
1010201020002011,
11201220,
1010201110102010,
0010222010200020,
34434434,
0030004000222011,
1000201010202011,
1000201000222020,
1010200010222010,
01210140,
1110201110201110,
2012102012104030,
30403343,
0030403000222220,//79
#GOGOEND
#BPMCHANGE 169.5
1011102020002022,
2010100022200011,
1,
#BPMCHANGE 165.5
2000200020222020,
#GOGOSTART
#BPMCHANGE 166
1000101022202010,
1000101020222010,
1010222010102220,
11202000,
1000101022202010,
1000101020222010,
1010222010222010,
11212000,
1000101022202010,
1000101020222010,
1010222010102220,
11212000,
1000101022202010,
1000101020222010,
1010222010222020,
11217008,//99
#GOGOEND
3,
,
#END
COURSE:Hard
LEVEL:6
SCOREINIT:540
SCOREDIFF:140
#START
,
20202002,
02202000,
20202022,
02022000,
20202002,
02202000,
20202022,
02202000,
10112021,
01202000,
10112211,
02202020,
10112021,
01202000,
10102214,
04040330,
10101101,
#MEASURE 3/4
010110,
#MEASURE 4/4
20220202,
#MEASURE 3/4
202202,
#MEASURE 4/4
11050000,
#MEASURE 3/4
000000000000000000000008000000000000,
#MEASURE 4/4
10110110,
#MEASURE 3/4
443,
#MEASURE 4/4
10101011,
#MEASURE 3/4
010110,
#MEASURE 4/4
20220202,
#MEASURE 3/4
202202,
#MEASURE 4/4
11010150,
#MEASURE 3/4
,
#MEASURE 4/4
000000000000000000000000000000000008000000000000,
#MEASURE 3/4
020220,
#MEASURE 4/4
30330330,
30330330,
600000000000000000000000000008000000000000200000,
22222202,
11101101,
#MEASURE 3/4
010110,
#MEASURE 4/4
22220202,
#MEASURE 3/4
202202,
#MEASURE 4/4
10150000,
#MEASURE 3/4
000000000000000000000008000000000000,
#MEASURE 4/4
11110110,
#MEASURE 3/4
443,
#MEASURE 4/4
11101111,
#MEASURE 3/4
010110,
#MEASURE 4/4
22220202,
#MEASURE 3/4
222202,
#MEASURE 4/4
11010150,
#MEASURE 3/4
,
#MEASURE 4/4
000000000000000000000000000000000008000000000000,
#MEASURE 7/8
20200022202220,
#MEASURE 4/4
10211021,
11202022,
10211021,
1020200020222020,
10220121,
01210120,
33033033,
03303333,
600000000000000000000008000000200000200000200000,
0020202000222020,//63
#GOGOSTART
1000200010222010,
0010201000222020,
10211221,
01210220,
11221121,
01211202,
34434434,
0030004000222020,
1000201010222010,
0010201000222020,
10211221,
01210040,
1110101110101110,
1011101011103030,
30403343,
03430000,//79
#GOGOEND
11122022,
2010100022200011,
1,
#SCROLL 0.981
2000200020222020,//83
#SCROLL 1
#BPMCHANGE 165.95
#GOGOSTART
10112021,
11220221,
11221121,
11202000,
10112021,
11221121,
11221202,
11202000,
10112112,
10221121,
11221121,
11202000,
10112022,
11221121,
11210121,
100000100000200000100000500000000000000008000000,//99
#GOGOEND
3,
,
#END
COURSE:Normal
LEVEL:4
BALLOON:10,10
SCOREINIT:630
SCOREDIFF:185
#START
,
11,
11,
1110,
11101000,
11,
11,
1110,
11101000,
1120,
1120,
1110,
22202000,
1120,
1120,
10101004,
04040000,
1111,
#MEASURE 3/4
222,
#MEASURE 4/4
0110,
#MEASURE 3/4
110,
#MEASURE 4/4
5,
#MEASURE 3/4
000000000000000008000000000000000000,
#MEASURE 4/4
1111,
#MEASURE 3/4
443,
#MEASURE 4/4
1111,
#MEASURE 3/4
222,
#MEASURE 4/4
0110,
#MEASURE 3/4
110,
#MEASURE 4/4
5,
#MEASURE 3/4
,
#MEASURE 4/4
000000000000000000000000000000000008000000000000,
#MEASURE 3/4
,
#MEASURE 4/4
30330330,
30330330,
600000000000000000000000000000000008000000000000,
,
1111,
#MEASURE 3/4
222,
#MEASURE 4/4
0110,
#MEASURE 3/4
110,
#MEASURE 4/4
5,
#MEASURE 3/4
000000000000000008000000000000000000,
#MEASURE 4/4
1111,
#MEASURE 3/4
443,
#MEASURE 4/4
1111,
#MEASURE 3/4
222,
#MEASURE 4/4
0110,
#MEASURE 3/4
110,
#MEASURE 4/4
5,
#MEASURE 3/4
,
#MEASURE 4/4
000000000000000000000000000000000008000000000000,
#MEASURE 7/8
,
#MEASURE 4/4
10011001,
1102,
20022002,
20200500,
000000000000000000000008000000000000000000000000,
10100110,
33033033,
03303030,
9009,
8,//63
#GOGOSTART
10101110,
1110,
20202220,
2220,
10101110,
1222,
6,
000000000000000000000008000000000000000000000000,
10101110,
1110,
20202220,
2220,
33033033,
03303300,
9009,
8,//79
#GOGOEND
1122,
10102201,
1,
#SCROLL 0.981
,//83
#SCROLL 1
#BPMCHANGE 165.95
#GOGOSTART
1120,
11102000,
1120,
11102000,
1120,
11102000,
1120,
22202000,
1120,
11102000,
1120,
11102000,
1120,
11102000,
1120,
22222000,//99
#GOGOEND
3,
,
#END
COURSE:Easy
LEVEL:3
BALLOON:5,5
SCOREINIT:510
SCOREDIFF:165
#START
,
11,
11,
1110,
1110,
11,
11,
1110,
1110,
12,
12,
1110,
2220,
12,
12,
10101004,
,
0202,
#MEASURE 3/4
022,
#MEASURE 4/4
0110,
#MEASURE 3/4
110,
#MEASURE 4/4
5,
#MEASURE 3/4
000000000000000008000000000000000000,
#MEASURE 4/4
1111,
#MEASURE 3/4
444,
#MEASURE 4/4
0202,
#MEASURE 3/4
022,
#MEASURE 4/4
0110,
#MEASURE 3/4
110,
#MEASURE 4/4
5,
#MEASURE 3/4
,
#MEASURE 4/4
000000000000000000000000000000000008000000000000,
#MEASURE 3/4
,
#MEASURE 4/4
30030000,
30030000,
600000000000000000000000000000000008000000000000,
,
0202,
#MEASURE 3/4
022,
#MEASURE 4/4
0110,
#MEASURE 3/4
110,
#MEASURE 4/4
5,
#MEASURE 3/4
000000000000000008000000000000000000,
#MEASURE 4/4
1111,
#MEASURE 3/4
444,
#MEASURE 4/4
0202,
#MEASURE 3/4
022,
#MEASURE 4/4
0110,
#MEASURE 3/4
110,
#MEASURE 4/4
5,
#MEASURE 3/4
,
#MEASURE 4/4
000000000000000000000000000000000008000000000000,
#MEASURE 7/8
,
#MEASURE 4/4
11,
1102,
22,
20200500,
000000000000000000000008000000000000000000000000,
1111,
30030030,
03003000,
9009,
8,//63
#GOGOSTART
1011,
11,
1111,
12,
1111,
0110,
6,
000000000000000000000008000000000000000000000000,
1011,
11,
1111,
2220,
30030030,
03003000,
9009,
8,//79
#GOGOEND
1122,
1120,
1,
#SCROLL 0.981
,//83
#SCROLL 1
#BPMCHANGE 165.95
#GOGOSTART
12,
12,
1120,
1120,
12,
12,
1120,
2220,
12,
12,
1120,
1120,
12,
12,
1120,
2220,//99
#GOGOEND
3,
,
#END