498 lines
5.3 KiB
Plaintext
498 lines
5.3 KiB
Plaintext
//TJADB Project
|
||
TITLE:Over Clock ~Kaihou~
|
||
TITLEJA:Over Clock ~開放~
|
||
SUBTITLE:--NAOKI feat. un∞limited/crossbeats REV.
|
||
SUBTITLEJA:--NAOKI feat.un∞limited 「クロスビーツレヴ」より
|
||
BPM:180
|
||
WAVE:Over Clock Kaihou.ogg
|
||
OFFSET:-2.001
|
||
DEMOSTART:43.660
|
||
|
||
//shinuchi: 5640/3920/2660/1580
|
||
|
||
COURSE:Oni
|
||
LEVEL:8
|
||
BALLOON:
|
||
SCOREINIT:510,1670
|
||
SCOREDIFF:130
|
||
|
||
#START
|
||
0200,
|
||
0202,
|
||
01,
|
||
11,
|
||
|
||
1111,
|
||
11111111,
|
||
1011101110111020,
|
||
1000000011112222, //8
|
||
|
||
1000100010111012,
|
||
1010001010112021,
|
||
1000100010111012,
|
||
1020102010002222,
|
||
|
||
1000100010111012,
|
||
1010001010112021,
|
||
1000100010111012,
|
||
1022102210202222, //16
|
||
|
||
1011201010122010,
|
||
1011201010222010,
|
||
1011201010122010,
|
||
1020102010002222,
|
||
|
||
1000102000102011,
|
||
2000202000102011,
|
||
2002002000102000,
|
||
500000000000000008000000200200200200200200200200, //24
|
||
|
||
1001001020020010,
|
||
2002001120020011,
|
||
1001001020020010,
|
||
2002001120020011,
|
||
|
||
1010101020201120,
|
||
1010101020201120,
|
||
1110111022203000,
|
||
#BARLINEOFF
|
||
#SCROLL 3.18
|
||
0004, //32
|
||
|
||
#BARLINEON
|
||
#SCROLL 1
|
||
#GOGOSTART
|
||
1011101110112020,
|
||
1011101110112020,
|
||
1011101110112020,
|
||
2000200020001111,
|
||
|
||
1011201020112010,
|
||
2011201120112000,
|
||
#GOGOEND
|
||
30030030,
|
||
500000000000000008000000200000200000100000000000, //40
|
||
|
||
#GOGOSTART
|
||
3022201022102010,
|
||
1022201010202000,
|
||
3022201022102010,
|
||
500000000000000008000000400000000000000000000000,
|
||
|
||
1022102010221020,
|
||
3022203022203000,
|
||
500000000000000000000008000000100000100000500000,
|
||
000000000000000008000000400000000000400000000000, //48
|
||
#GOGOEND
|
||
|
||
3000222020201000,
|
||
1020201000121000,
|
||
1000222020201000,
|
||
40014010,
|
||
|
||
3000222020201000,
|
||
1020201000121000,
|
||
1000222020201000,
|
||
4011101040221020,
|
||
3000000022221000, //57
|
||
|
||
10020020,
|
||
10020020,
|
||
10020020,
|
||
10021000,
|
||
|
||
10210222,
|
||
1212,
|
||
30030030,
|
||
500000000000000008000000200200200200100000000000, //65
|
||
|
||
#GOGOSTART
|
||
3022201022102010,
|
||
1022201010202000,
|
||
3022201022102010,
|
||
500000000008000000400000400000000000000000000000,
|
||
|
||
1022102010221020,
|
||
3022203022203000,
|
||
500000000000000000000008000000100100100000100000,
|
||
0040001022221020, //73
|
||
|
||
3022201022112010,
|
||
1022102211202210,
|
||
3022201022112010,
|
||
1022102211202210,
|
||
|
||
1121101011221010,
|
||
1222104000104011,
|
||
2111112111112111,
|
||
1121111120005000,
|
||
|
||
000000000000000000000000000008000000000000000000,
|
||
#GOGOEND
|
||
0,
|
||
0,
|
||
0, //85
|
||
#END
|
||
|
||
|
||
COURSE:Hard
|
||
LEVEL:7
|
||
BALLOON:
|
||
SCOREINIT:710,3060
|
||
SCOREDIFF:193
|
||
|
||
#START
|
||
0200,
|
||
0202,
|
||
0,
|
||
11,
|
||
|
||
1111,
|
||
1111,
|
||
11111111,
|
||
2, //8
|
||
|
||
10101011,
|
||
1000100010002011,
|
||
10101011,
|
||
1000100010002222,
|
||
|
||
10101011,
|
||
1000100010002011,
|
||
10101011,
|
||
1000100010002222, //16
|
||
|
||
10201021,
|
||
10201120,
|
||
10201021,
|
||
1000200010002222,
|
||
|
||
1000002000001110,
|
||
1000202000001110,
|
||
1002002000001110,
|
||
500000000000000000000008000000000000000000000000, //24
|
||
|
||
10012010,
|
||
1001001020002011,
|
||
10012010,
|
||
1001001020002011,
|
||
|
||
11112222,
|
||
11112222,
|
||
3344,
|
||
0, //32
|
||
|
||
#GOGOSTART
|
||
1000101000111010,
|
||
2000201000111010,
|
||
1000201000111010,
|
||
2220,
|
||
|
||
1000201000111010,
|
||
2222,
|
||
#GOGOEND
|
||
30030030,
|
||
600000000000000000000008000000000000000000000000, //40
|
||
|
||
#GOGOSTART
|
||
30210120,
|
||
1000201110202000,
|
||
30210120,
|
||
500000000008000000000000400000000000000000000000,
|
||
|
||
0333,
|
||
30030030,
|
||
6,
|
||
000000000000000000000000000000000008000000000000, //48
|
||
#GOGOEND
|
||
|
||
3000222020201000,
|
||
10012000,
|
||
1000222020201000,
|
||
44,
|
||
|
||
3000222020201000,
|
||
10012000,
|
||
1000222020201000,
|
||
44,
|
||
0, //57
|
||
|
||
1,
|
||
1,
|
||
1,
|
||
11,
|
||
|
||
1,
|
||
1,
|
||
30030030,
|
||
600000000000000000000008000000000000000000000000, //65
|
||
|
||
#GOGOSTART
|
||
30210120,
|
||
1000201110202000,
|
||
30210120,
|
||
1000201110202000,
|
||
|
||
0333,
|
||
30030030,
|
||
6,
|
||
000000000000000000000008000000000000000000000000, //73
|
||
|
||
30221120,
|
||
1000201110222000,
|
||
30221120,
|
||
1000201110222000,
|
||
|
||
00333030,
|
||
30040040,
|
||
6,
|
||
0,
|
||
|
||
000000000000000000000000000008000000000000000000,
|
||
#GOGOEND
|
||
0,
|
||
0,
|
||
0, //85
|
||
#END
|
||
|
||
|
||
COURSE:Normal
|
||
LEVEL:6
|
||
BALLOON:
|
||
SCOREINIT:800,4800
|
||
SCOREDIFF:238
|
||
|
||
#START
|
||
0200,
|
||
0202,
|
||
0,
|
||
0,
|
||
|
||
11,
|
||
11,
|
||
1111,
|
||
1, //8
|
||
|
||
1110,
|
||
1112,
|
||
1110,
|
||
11101000,
|
||
|
||
2220,
|
||
2221,
|
||
2220,
|
||
22202000, //16
|
||
|
||
10101011,
|
||
1112,
|
||
10101011,
|
||
1112,
|
||
|
||
10020010,
|
||
10220010,
|
||
1002002000001000,
|
||
500000000000000000000008000000000000000000000000, //24
|
||
|
||
1122,
|
||
10012000,
|
||
1122,
|
||
10012000,
|
||
|
||
1122,
|
||
1122,
|
||
3344,
|
||
0, //32
|
||
|
||
#GOGOSTART
|
||
10101110,
|
||
20201110,
|
||
10101110,
|
||
2220,
|
||
|
||
10101110,
|
||
2222,
|
||
#GOGOEND
|
||
30030030,
|
||
600000000000000000000008000000000000000000000000, //40
|
||
|
||
#GOGOSTART
|
||
30010020,
|
||
10022000,
|
||
30010020,
|
||
14,
|
||
|
||
0333,
|
||
30030030,
|
||
6,
|
||
000000000000000000000000000008000000000000000000, //48
|
||
#GOGOEND
|
||
|
||
32,
|
||
10012000,
|
||
12,
|
||
44,
|
||
|
||
32,
|
||
10012000,
|
||
12,
|
||
44,
|
||
0, //57
|
||
|
||
1,
|
||
1,
|
||
1,
|
||
11,
|
||
|
||
1,
|
||
1,
|
||
30030030,
|
||
600000000000000000000008000000000000000000000000, //65
|
||
|
||
#GOGOSTART
|
||
30010020,
|
||
10022000,
|
||
30010020,
|
||
10022000,
|
||
|
||
0333,
|
||
30030030,
|
||
6,
|
||
000000000000000000000008000000000000000000000000, //73
|
||
|
||
30010020,
|
||
10022000,
|
||
30010020,
|
||
10022000,
|
||
|
||
00333030,
|
||
30040040,
|
||
6,
|
||
0,
|
||
|
||
000000000000000000000000000008000000000000000000,
|
||
#GOGOEND
|
||
0,
|
||
0,
|
||
0, //85
|
||
#END
|
||
|
||
|
||
COURSE:Easy
|
||
LEVEL:3
|
||
BALLOON:
|
||
SCOREINIT:590,7480
|
||
SCOREDIFF:215
|
||
|
||
#START
|
||
0200,
|
||
0202,
|
||
0,
|
||
0,
|
||
|
||
1,
|
||
1,
|
||
11,
|
||
1, //8
|
||
|
||
1,
|
||
1,
|
||
11,
|
||
1,
|
||
|
||
2,
|
||
2,
|
||
22,
|
||
2, //16
|
||
|
||
11,
|
||
1,
|
||
11,
|
||
1001,
|
||
|
||
1001,
|
||
1001,
|
||
1002,
|
||
500000000000000000000008000000000000000000000000, //24
|
||
|
||
12,
|
||
2,
|
||
12,
|
||
2,
|
||
|
||
12,
|
||
12,
|
||
3044,
|
||
0, //32
|
||
|
||
#GOGOSTART
|
||
3011,
|
||
1011,
|
||
11,
|
||
1110,
|
||
|
||
11,
|
||
1110,
|
||
#GOGOEND
|
||
30030030,
|
||
600000000000000000000008000000000000000000000000, //40
|
||
|
||
#GOGOSTART
|
||
3011,
|
||
12,
|
||
3011,
|
||
12,
|
||
|
||
0333,
|
||
30030030,
|
||
6,
|
||
000000000000000000000008000000000000000000000000, //48
|
||
#GOGOEND
|
||
|
||
3,
|
||
22,
|
||
1,
|
||
44,
|
||
|
||
3,
|
||
22,
|
||
1,
|
||
44,
|
||
0, //57
|
||
|
||
1,
|
||
1,
|
||
1,
|
||
11,
|
||
|
||
1,
|
||
1,
|
||
30030030,
|
||
600000000000000000000008000000000000000000000000, //65
|
||
|
||
#GOGOSTART
|
||
3011,
|
||
12,
|
||
3011,
|
||
12,
|
||
|
||
0333,
|
||
30030030,
|
||
6,
|
||
000000000000000000000008000000000000000000000000, //73
|
||
|
||
3011,
|
||
12,
|
||
3011,
|
||
12,
|
||
|
||
0333,
|
||
30040040,
|
||
6,
|
||
0,
|
||
|
||
000000000000000000000000000008000000000000000000,
|
||
#GOGOEND
|
||
0,
|
||
0,
|
||
0, //85
|
||
#END |