Files
TJA-by-song-no/tja/979.tja
2026-03-07 15:37:31 +09:00

558 lines
6.5 KiB
Plaintext
Raw Blame History

This file contains ambiguous Unicode characters
This file contains Unicode characters that might be confused with other characters. If you think that this is intentional, you can safely ignore this warning. Use the Escape button to reveal them.
//TJADB Project
TITLE:Todoroke! Taiko no Tatsujin
TITLEJA:轟け!太鼓の達人
SUBTITLE:--steμ × Yuuji Masubuchi feat. Takayoshi Tanimoto
SUBTITLEJA:steμ×マスブチ×ササオカ feat. 谷本貴義&たかはし智秋
BPM:154
WAVE:Todoroke! Taiko no Tatsujin.ogg
OFFSET:-1.675
DEMOSTART:19.515
COURSE:Oni
LEVEL:8
STYLE:Double
BALLOON:8,8,25,8,20
SCOREINIT:400
SCOREDIFF:80
#START P1
3003003000000000,
0001,
3003003000002000,
,
3003003000202000,
3003003000202000,
3003003030030030,
78,
1011201110222012,
1011201110222012,
1022201210222010,
78,
#GOGOSTART
1001102010222010,
1001102010222010,
1011201110122012,
1022101110221122,
1011221120202012,
1022112210101012,
7,
08,
#GOGOEND
1012102220220020,
10022010,
1012102220220020,
10022010,
1012102220220020,
10022010,
500000000000000000000000000000000000000008000000,
200000202020202020202020200200200200100100200200,
1011201010222010,
1001201010201222,
1011201010222010,
100000002000000020000000100000000000100200200200,
1011201010222010,
11100020,
1121102010102010,
1001102030011020,
1121102010102010,
1022202210211020,
1121102010102011,
2002201021212010,
1121102010102010,
1000101110111222,
1000002220000010,
2120,
1000002220000010,
222200000222,
3003003000221010,
3003003000221010,
303030313030,
3010222010010011,
#GOGOSTART
1001102012221011,
1001102011221012,
1022101210202001,
1022201011212010,
2222102011212010,
2222102011212010,
2002001012121000,
3000300022122011,
1012102210212011,
1012102210212011,
1022202210211011,
1022202210211221,
1022112210202012,
1011221120101012,
7086,
000000000000000000000000000000000008000000000000,
#GOGOEND
1002201020112021,
1221101020121020,
1012021020210120,
1022122011221122,
1000000000000011,
1010100020222011,
1010100020222011,
1022201210202001,
1022201120201122,
1012201120211022,
1012201120221111,
2002001012112000,
300000000000300000000000202020202020200200200100,
#GOGOSTART
1012102210212011,
1012102210212011,
1022202210211011,
1022102110221122,
1011221210221212,
1011221220221212,
1021221210121222,
1021221220121222,
7008,
600000000000000000000000000000000008000000300000,
#GOGOEND
#END
#START P2
3003003000000000,
0001,
3003003000002000,
,
3003003000202000,
3003003000202000,
3003003030030030,
78,
1011201110222012,
1011201110222012,
1022201210222010,
78,
#GOGOSTART
1001102010222010,
1001102010222010,
1011201110122012,
1022101110221122,
1022112210101012,
1011221120202012,
7,
08,
#GOGOEND
10022010,
1012102220220020,
10022010,
1012102220220020,
10022010,
1012102220220020,
500000000000000000000000000000000000000008000000,
200000202020202020202020200200200200100100200200,
1011201010222010,
1001201010201222,
1011201010222010,
100000002000000020000000100000000000100200200200,
1011201010222010,
11100020,
1121102010102010,
1001102030011020,
1121102010102010,
1022202210211020,
1121102010102011,
2002201021212010,
1121102010102010,
1000101110111222,
1000002220000010,
2120,
1000002220000010,
222200000222,
3003003000221010,
3003003000221010,
303030313030,
3010222010010011,
#GOGOSTART
1001102012221011,
1001102011221012,
1022101210202001,
1022201011212010,
2222102011212010,
2222102011212010,
2002001012121000,
3000300022122011,
1012102210212011,
1012102210212011,
1022202210211011,
1022202210211221,
1011221120101012,
1022112210202012,
7086,
000000000000000000000000000000000008000000000000,
#GOGOEND
1002201020112021,
1221101020121020,
1012021020210120,
1022122011221122,
1,
2022201110101000,
2022201110101011,
1022201210202001,
1022201120201122,
1012201120211022,
1012201120221111,
2002001012112000,
300000000000300000000000202020202020200200200100,
#GOGOSTART
1012102210212011,
1012102210212011,
1022202210211011,
1022102110221122,
1011221210221212,
1011221220221212,
1021221210121222,
1021221220121222,
7008,
600000000000000000000000000000000008000000300000,
#GOGOEND
#END
COURSE:Hard
LEVEL:7
BALLOON:7,20,12,12
SCOREINIT:510
SCOREDIFF:130
#START
3003003000000000,
,
3003003000002000,
,
3003003000202000,
3003003000202000,
3003003030030030,
3,
1011101010202000,
1011101010202000,
1011101110202000,
78,
#GOGOSTART
10111220,
10111220,
1011100020222000,
1011101110202000,
1011101010101000,
2022202020202000,
7,
08,
#GOGOEND
1011102020000000,
10022000,
1011102020000000,
10022000,
1011102020000000,
10022000,
9,
8,
1011101010002010,
12,
1011101010002010,
12,
10011020,
11100020,
1001101010002000,
1000100030011010,
1001101010002000,
11211020,
1001101010002000,
4002202040001000,
1001101010002000,
1122,
10002001,
1120,
10002001,
1,
3003003000000000,
3003003000000000,
333333,
3000000000000011,
#GOGOSTART
1001101010202011,
1001101010202011,
1022201110202001,
1002201010202000,
2022200010111000,
2022200010111000,
2002001010101000,
3344,
10111220,
10111220,
1011100020222000,
1011101110202000,
2022202020202000,
1011101010101000,
3006,
000000000000000000000000000008000000000000000000,
#GOGOEND
1001101020102000,
1001101020102000,
1001002010010020,
1,
2000000000000011,
1000000020000011,
1000000020000011,
1022201010202001,
1002201010202000,
2022200010111000,
2022200010111000,
2002001010101000,
3344,
#GOGOSTART
1000101010222000,
1000101010222000,
1011100020222000,
1011101110222000,
1011101020102000,
1011101020102000,
2022202020102000,
2022202020102000,
7008,
600000000000000000000000000000000000000008000000,
#GOGOEND
,
,
#END
COURSE:1
LEVEL:5
BALLOON:15,10,8
SCOREINIT:690
SCOREDIFF:203
#START
3,
0,
3002,
0,
3,
3,
33,
3,
1110,
1110,
1112,
1,
#GOGOSTART
10111000,
10111000,
1122,
10111000,
10001110,
20002220,
7,
08,
#GOGOEND
10022000,
1,
10022000,
1,
10022000,
1,
9,
8,
10011020,
1,
10011020,
1,
10011020,
1,
1110,
13,
1110,
1011,
1110,
2021,
1110,
1122,
12,
1120,
12,
1,
3,
3,
33,
3,
#GOGOSTART
3,
3,
10111000,
10111000,
2211,
2211,
2002001010101000,
3344,
10111000,
10111000,
1122,
10111000,
20002220,
10001110,
3006,
000000000000000000000000000008000000000000000000,
#GOGOEND
10022020,
10022020,
10011001,
1,
2,
12,
12,
11,
1,
2211,
2211,
2002001010101000,
3344,
#GOGOSTART
10111020,
10111020,
1122,
10111000,
10111120,
10111120,
10111220,
10111220,
7008,
600000000000000000000000000000000000000008000000,
#GOGOEND
,
,
#END
COURSE:0
LEVEL:2
BALLOON:10,8,5
SCOREINIT:540
SCOREDIFF:198
#START
3,
0,
3,
0,
3,
3,
33,
3,
1,
1,
11,
1,
#GOGOSTART
1110,
1110,
1111,
11,
11,
22,
7,
08,
#GOGOEND
11,
2,
11,
2,
11,
2,
9,
8,
11,
2,
12,
2,
11,
2,
1,
13,
1,
0011,
1,
22,
1,
1111,
1,
2,
1,
2,
3,
3,
33,
3,
#GOGOSTART
3,
3,
11,
1,
1110,
1110,
2,
3344,
1110,
1110,
1122,
1110,
22,
11,
3006,
000000000000000000000000000008000000000000000000,
#GOGOEND
12,
12,
11,
1,
2,
12,
12,
11,
1,
1110,
1110,
22,
3344,
#GOGOSTART
1110,
1110,
1122,
1110,
1110,
1110,
1120,
1120,
7008,
600000000000000000000000000000000000000008000000,
#GOGOEND
,
,
#END