Files
TJA-by-song-no/tja/1044.tja
2026-03-04 23:59:27 +09:00

385 lines
11 KiB
Plaintext

//TJADB Project
TITLE:Daibouken Tatsudon
TITLEJA:大冒険タツドン
SUBTITLE:--Katsuro Tajima feat. Sixties Choirs
SUBTITLEJA:太鼓 de タイムトラベル60's / 田島勝朗 feat. シックスティーズ・クワイヤーズ
BPM:135
WAVE:Daibouken Tatsudon.ogg
OFFSET:-1.799
DEMOSTART:56.206
COURSE:Oni
LEVEL:8
BALLOON:20,7,7
SCOREINIT:2810
SCOREDIFF:0
#START
000000000000000000000000000000000000000000000000,
700000000000000000000000000000000000000000000000,
800000000000000000000000000000100000100000200000,
100000000000100000000000100000200000100000200100,
100000000000100000000000100000100100200100100200,
100000000100100000000200100000000000100000000000,
100000100100200000100200200000100100200100100200,
100000100000200000100000100000200100100000200100,
100000000000100000000000100000100100200100100200,
100000000100100000000200100000000000100000000000,
100000100100200000100200200000200100100200200200,
100000100000200000100000100000000200100000000000,
300000000000300000000000400000000000200100200200,
100000100000200000100000100000000200100100200000,
300000000000400000000000300000000000000000000000,
100100100200100100200100200000000000
#SCROLL 1.6
300000000000,
#SCROLL 1
100100100200100100200100200000000000
#SCROLL 1.6
400000000000,
#SCROLL 1
100000000000
#SCROLL 1.6
700000000000000000800000
#SCROLL 1
200100100100,
200000100000200000100000200000100000100000200000,
#GOGOSTART
300000000000400000000000300000000000400000100000,
100000000100100000000100100000000000100000000000,
400000000000300000000000100000000100100000000200,
500000000000000000000008000000000000000000000000,
#GOGOEND
200000200000000000200000200000200000000000200000,
200000200200200000200000200000200000000000200000,
200000200000000000200000200000200000000000200000,
#MEASURE 7/8
202220202000
#BPMCHANGE 67.5
#SCROLL 0.5
30,
#MEASURE 4/4
#BPMCHANGE 135
#SCROLL 1
200000200000000000200000200000100000200000200000,
100000200000000000200000100000200000100000200200,
100000000000200000000200100000200000200000000000,
#BARLINEOFF
#MEASURE 7/4
#BPMCHANGE 540
#SCROLL 0.5
508508508508508508508508508508508508508508508508
#BPMCHANGE 135
#SCROLL 1
000000000000000000100000100000200000,
#BARLINEON
#MEASURE 4/4
100000000000100000000000100000200000100000200100,
100000000000100000000000100000100100200100100200,
100000000100100000000200100000000000100000000000,
100000100100200000100200200000100100200100100200,
100000100000200000100000100000200100100000200100,
100000000000100000000000100000100100200100100200,
100000000100100000000200100200200200100000000000,
100000100100200000100200200000200000200000200000,
100000100000200000100000100000000200100000000000,
300000000000300000000000400000000000200100200200,
100000100000200000100000100000000200100100200000,
300000000000400000000000300000000000000000000000,
100100100200100100200100200000000000
#SCROLL 1.6
300000000000,
#SCROLL 1
100100100200100100200100200000000000
#SCROLL 1.6
400000000000,
#SCROLL 1
100000000000
#SCROLL 1.6
700000000000000000800000
#SCROLL 1
200100100100,
200000100000200000100000200000100000100000200000,
#GOGOSTART
300000000000400000000000300000000000400000000100,
100000000100100000000100100100000000100000000000,
400000000000300000000000100000000100100000000200,
500000000000000000000008000000000000300000000000,
#GOGOEND
#END
COURSE:Hard
LEVEL:6
BALLOON:14,10,10
SCOREINIT:4080
SCOREDIFF:0
#START
000000000000000000000000000000000000000000000000,
900000000000000000000000000000000000000000000000,
800000000000000000000000000000000000000000000000,
100000000000100000000000100000200000100000200000,
100000000000100000000000100000200200200000200000,
100000000100100000000100100000000000100000000000,
100000100100100000100100100000200000200000000000,
100000100000200000100000100000000100100000000100,
100000000000100000000000100000200200200000200000,
100000000100100000000100100000000000100000000000,
500000000000000000000000000000000008000000000000,
100000100000000000100000100000000200200000000000,
300000000000300000000000400000000000000000000000,
100000100000000000100000100000000200200000000000,
300000000000400000000000300000000000000000000000,
100000100100100000100100100000000000300000000000,
200000200200200000200200200000000000400000000000,
100000000000700000000000000000000000000000000000,
800000000000000000000000000000100000100000200000,
#GOGOSTART
300000000000400000000000300000000000400000000000,
100000000100100000000100100000000000100000000000,
400000000000300000000000100000000100100000000000,
500000000000000000000008000000000000000000000000,
#GOGOEND
200000200000000000200000200000000000200000000000,
200000200000000000200000200000000000000000000000,
200000200000000000200000200000000000200000000000,
#MEASURE 7/8
2200220
#BPMCHANGE 67.5
3,
#MEASURE 4/4
#BPMCHANGE 135
200000200000000000200000200000000000200000000000,
100000200000000000200000100000000000200000000000,
100000000000200000000000100000100000200000000000,
#BARLINEOFF
#MEASURE 7/4
#BPMCHANGE 540
#SCROLL 0.5
508508508508508508508508508508508508508508508508
#BPMCHANGE 135
#SCROLL 1
000000000000000000100000100000200000,
#BARLINEON
#MEASURE 4/4
100000000000100000000000100000200000100000200000,
100000000000100000000000100000200200200000200000,
100000000100100000000100100000000000100000000000,
100000100100100000100100100000200000200000000000,
100000100000200000100000100000000100100000000100,
100000000000100000000000100000200200200000200000,
100000000100100000000100100000000000100000000000,
500000000000000000000000000000000008000000000000,
100000100000000000100000100000000200200000000000,
300000000000300000000000400000000000000000000000,
100000100000000000100000100000000200200000000000,
300000000000400000000000300000000000000000000000,
100000100100100000100100100000000000300000000000,
200000200200200000200200200000000000400000000000,
100000000000700000000000000000000000000000000000,
800000000000000000000000000000100000100000200000,
#GOGOSTART
300000000000400000000000300000000000400000000000,
100000000100100000000100100100000000100000000000,
400000000000300000000000100000000100100000000000,
500000000000000000000080000000000000300000000000,
#GOGOEND
#END
COURSE:Normal
LEVEL:4
BALLOON:10,8,8
SCOREINIT:7150
SCOREDIFF:0
#START
000000000000000000000000000000000000000000000000,
9,
8,
100000000000000000000000100000100000100000000000,
100000000000100000000000100000000000000000000000,
100000000000100000000000100000000000200000000000,
100000000000000000000000000000000000000000000000,
100000100000000000000000100000000000100000000000,
100000000000200000000000100000000000000000000000,
100000000000100000000000100000000000200000000000,
500000000000000000000000000000000008000000000000,
100000100000000000000000100000000000100000000000,
300000000000300000000000400000000000000000000000,
100000100000000000000000100000000000100000000000,
300000000000400000000000300000000000000000000000,
100000000000000000100000100000000000300000000000,
200000000000000000200000200000000000400000000000,
0700,
8,
000000000000000000000000000000000000000000000000,
#GOGOSTART
300000000000000000000000300000000000000000000000,
100000000000100000000000100000000000200000000000,
400000000000300000000000100000000000100000000000,
500000000000000000000008000000000000000000000000,
#GOGOEND
200000000000000000200000200000000000200000000000,
200000000000000000200000200000000000000000000000,
200000000000000000200000200000000000200000000000,
#MEASURE 7/8
200220
#BPMCHANGE 67.5
3,
#MEASURE 4/4
#BPMCHANGE 135
200000000000000000200000200000000000200000000000,
100000000000000000100000100000000000200000000000,
100000000000200000000000100000000000100000000000,
#BARLINEOFF
#MEASURE 7/4
#BPMCHANGE 540
#SCROLL 0.5
508508508508508508508508508508508508508508508508
#BPMCHANGE 135
#SCROLL 1
000000000000000000100000100000200000,
#BARLINEON
#MEASURE 4/4
100000000000000000000000100000100000100000000000,
100000000000100000000000100000000000000000000000,
100000000000100000000000100000000000200000000000,
100000000000000000000000000000000000000000000000,
100000100000000000000000100000000000100000000000,
100000000000200000000000100000000000000000000000,
100000000000100000000000100000000000200000000000,
500000000000000000000000000000000008000000000000,
100000100000000000000000100000000000100000000000,
300000000000300000000000400000000000000000000000,
100000100000000000000000100000000000100000000000,
300000000000400000000000300000000000000000000000,
100000000000000000100000100000000000300000000000,
200000000000000000200000200000000000400000000000,
0700,
8,
#GOGOSTART
300000000000000000000000300000000000000000000000,
100000000000100000000000100000000000200000000000,
400000000000300000000000100000000000100000000000,
500000000000000000000008000000000000300000000000,
#GOGOEND
#END
COURSE:Easy
LEVEL:2
BALLOON:8,6,6
SCOREINIT:10710
SCOREDIFF:0
#START
000000000000000000000000000000000000000000000000,
9,
8,
100000000000000000000000100000000000100000000000,
100000000000000000000000100000000000000000000000,
100000000000100000000000100000000000000000000000,
100000000000000000000000000000000000000000000000,
100000000000000000000000100000000000100000000000,
100000000000000000000000100000000000000000000000,
100000000000100000000000100000000000000000000000,
500000000000000000000000000008000000000000000000,
100000000000000000000000100000000000100000000000,
300000000000300000000000300000000000000000000000,
100000000000000000000000100000000000100000000000,
300000000000300000000000300000000000000000000000,
100000000000000000000000000000000000300000000000,
100000000000000000000000000000000000400000000000,
000000000000700000000000000000000000000000000000,
800000000000000000000000000000000000000000000000,
#GOGOSTART
300000000000000000000000300000000000000000000000,
100000000000000000000000100000000000100000000000,
300000000000000000000000200000000000000000000000,
500000000000000000000008000000000000000000000000,
#GOGOEND
200000000000000000000000000000000000000000000000,
200000000000000000000000200000000000000000000000,
200000000000000000000000000000000000000000000000,
#MEASURE 7/8
200000
#BPMCHANGE 67.5
3,
#BPMCHANGE 135
#MEASURE 4/4
200000000000000000000000200000000000000000000000,
100000000000000000000000100000000000000000000000,
100000000000000000000000100000000000000000000000,
#BARLINEOFF
#MEASURE 7/4
#BPMCHANGE 540
#SCROLL 0.5
508508508508508508508508508508508508508508508508
#BPMCHANGE 135
#SCROLL 1
000000000000000000100000100000200000,
#BARLINEON
#MEASURE 4/4
100000000000000000000000100000000000100000000000,
100000000000000000000000100000000000000000000000,
100000000000100000000000100000000000000000000000,
100000000000000000000000000000000000000000000000,
100000000000000000000000100000000000100000000000,
100000000000000000000000100000000000000000000000,
100000000000100000000000100000000000000000000000,
500000000000000000000000000008000000000000000000,
100000000000000000000000100000000000100000000000,
300000000000300000000000300000000000000000000000,
100000000000000000000000100000000000100000000000,
300000000000300000000000300000000000000000000000,
100000000000000000000000000000000000300000000000,
100000000000000000000000000000000000400000000000,
000000000000700000000000000000000000000000000000,
800000000000000000000000000000000000000000000000,
#GOGOSTART
300000000000000000000000300000000000000000000000,
100000000000000000000000100000000000100000000000,
300000000000000000000000200000000000000000000000,
500000000000000008000000000000000000300000000000,
#GOGOEND
#END