425 lines
4.5 KiB
Plaintext
425 lines
4.5 KiB
Plaintext
//TJADB Project
|
|
TITLE:Suki Suki Seijin
|
|
TITLEJA:スキスキ星人
|
|
SUBTITLE:--Strawberry Prince & NayutalieN
|
|
SUBTITLEJA:すとぷり / ナユタン星人
|
|
BPM:185
|
|
WAVE:Suki Suki Seijin.ogg
|
|
OFFSET:-2.652
|
|
DEMOSTART:64.908
|
|
|
|
COURSE:Oni
|
|
LEVEL:6
|
|
BALLOON:10,10,10,10,5,5,10
|
|
SCOREINIT:2480
|
|
SCOREDIFF:
|
|
|
|
#START
|
|
1112,
|
|
1121,
|
|
1122,
|
|
500000000000000000000008000000000000400000000000,
|
|
10102112,
|
|
10102122,
|
|
10111111,
|
|
3000300030112010,
|
|
#GOGOSTART
|
|
10201211,
|
|
10201211,
|
|
10201211,
|
|
2000200010121010,
|
|
10201211,
|
|
10201211,
|
|
1000200020221020,
|
|
7008,
|
|
#GOGOEND
|
|
10012002,
|
|
11211012,
|
|
10202011,
|
|
2000100010222020,
|
|
10012002,
|
|
1000201010002220,
|
|
10211020,
|
|
30303001,
|
|
10211021,
|
|
11211011,
|
|
1000222011101000,
|
|
1020101020002220,
|
|
10211021,
|
|
1011101010002220,
|
|
1010202010101110,
|
|
3430,
|
|
10211020,
|
|
10211010,
|
|
500000000000000000000000000000000008000000000000,
|
|
7008,
|
|
10211020,
|
|
10212020,
|
|
500000000000000000000000000000000008000000000000,
|
|
7008,
|
|
10211020,
|
|
10211010,
|
|
500000000000000000000000000000000008000000000000,
|
|
7008,
|
|
10201110,
|
|
10111110,
|
|
1010101011101110,
|
|
1,
|
|
#GOGOSTART
|
|
1000100110102000,
|
|
2000200220102000,
|
|
1121,
|
|
500000000008000000400000,
|
|
1000100110102000,
|
|
2000200220102000,
|
|
1221,
|
|
500000000000000000000008000000000000200000000000,
|
|
1000100110102020,
|
|
1000200220201010,
|
|
1121,
|
|
500000000000000000000008000000000000400000000000,
|
|
10211020,
|
|
10212011,
|
|
1212,
|
|
3000300030112020,
|
|
#GOGOEND
|
|
10201101,
|
|
02070081,
|
|
21021201,
|
|
21112020,
|
|
10201101,
|
|
02070081,
|
|
21021202,
|
|
1000100010112020,
|
|
#GOGOSTART
|
|
10201211,
|
|
10201211,
|
|
10201211,
|
|
2000200010121010,
|
|
10201211,
|
|
10201211,
|
|
1000200020221020,
|
|
700
|
|
#BPMCHANGE 182
|
|
#SCROLL 1.01648351648
|
|
8,
|
|
#GOGOEND
|
|
#BPMCHANGE 185
|
|
#SCROLL 1
|
|
20202222,
|
|
#END
|
|
|
|
|
|
|
|
COURSE:Hard
|
|
LEVEL:5
|
|
BALLOON:8,8,8,8,8,8,8
|
|
SCOREINIT:3420
|
|
SCOREDIFF:
|
|
|
|
|
|
|
|
#START
|
|
1112,
|
|
1121,
|
|
1122,
|
|
500000000000000000000008000000000000400000000000,
|
|
10101110,
|
|
10102220,
|
|
10101110,
|
|
3332,
|
|
#GOGOSTART
|
|
10201110,
|
|
10201110,
|
|
10201110,
|
|
20202220,
|
|
10201110,
|
|
10201110,
|
|
10202220,
|
|
7008,
|
|
#GOGOEND
|
|
12,
|
|
10111020,
|
|
10202011,
|
|
1110,
|
|
12,
|
|
10111020,
|
|
10111020,
|
|
3330,
|
|
12,
|
|
10111020,
|
|
1211,
|
|
11102000,
|
|
12,
|
|
10111020,
|
|
11101110,
|
|
3430,
|
|
10011020,
|
|
10011010,
|
|
500000000000000000000000000000000008000000000000,
|
|
7008,
|
|
10011020,
|
|
10022020,
|
|
500000000000000000000000000000000008000000000000,
|
|
7008,
|
|
10011020,
|
|
10011010,
|
|
500000000000000000000000000000000008000000000000,
|
|
7008,
|
|
1111,
|
|
10101110,
|
|
11101111,
|
|
1,
|
|
#GOGOSTART
|
|
10101110,
|
|
20202220,
|
|
1121,
|
|
500000000000000000000008000000000000400000000000,
|
|
10101110,
|
|
20202220,
|
|
1221,
|
|
500000000000000000000008000000000000000000000000,
|
|
10101110,
|
|
20202220,
|
|
1121,
|
|
500000000000000000000008000000000000400000000000,
|
|
1212,
|
|
10202011,
|
|
1212,
|
|
3330,
|
|
#GOGOEND
|
|
10101107,
|
|
00000800,
|
|
22,
|
|
11102020,
|
|
10101107,
|
|
00000800,
|
|
11,
|
|
10101110,
|
|
#GOGOSTART
|
|
10201110,
|
|
10201110,
|
|
10201110,
|
|
20202220,
|
|
10201110,
|
|
10201110,
|
|
10202220,
|
|
700
|
|
#BPMCHANGE 182
|
|
#SCROLL 1.01648351648
|
|
8,
|
|
#GOGOEND
|
|
#BPMCHANGE 185
|
|
#SCROLL 1
|
|
2022,
|
|
#END
|
|
|
|
|
|
|
|
COURSE:Normal
|
|
LEVEL:3
|
|
BALLOON:6,6,6,6,6,6,6
|
|
SCOREINIT:4910
|
|
SCOREDIFF:
|
|
|
|
|
|
|
|
#START
|
|
11,
|
|
12,
|
|
1110,
|
|
500000000000000000000008000000000000400000000000,
|
|
11,
|
|
12,
|
|
1110,
|
|
3330,
|
|
#GOGOSTART
|
|
1011,
|
|
1011,
|
|
1011,
|
|
2022,
|
|
1011,
|
|
1011,
|
|
1022,
|
|
7008,
|
|
#GOGOEND
|
|
12,
|
|
1110,
|
|
1220,
|
|
1110,
|
|
12,
|
|
1110,
|
|
1210,
|
|
3330,
|
|
12,
|
|
1110,
|
|
1211,
|
|
1120,
|
|
12,
|
|
1110,
|
|
1112,
|
|
3330,
|
|
20022000,
|
|
20022000,
|
|
500000000000000000000000000000000008000000000000,
|
|
7008,
|
|
20022000,
|
|
20022000,
|
|
500000000000000000000000000000000008000000000000,
|
|
7008,
|
|
20022000,
|
|
20022000,
|
|
500000000000000000000000000000000008000000000000,
|
|
7008,
|
|
1110,
|
|
1110,
|
|
10101110,
|
|
1,
|
|
#GOGOSTART
|
|
1011,
|
|
2022,
|
|
1121,
|
|
500000000000000000000008000000000000400000000000,
|
|
1011,
|
|
2022,
|
|
1221,
|
|
500000000000000000000008000000000000000000000000,
|
|
1012,
|
|
1022,
|
|
1121,
|
|
500000000000000000000008000000000000400000000000,
|
|
1211,
|
|
1211,
|
|
1212,
|
|
3330,
|
|
#GOGOEND
|
|
10001007,
|
|
00000800,
|
|
22,
|
|
1122,
|
|
10001007,
|
|
00000800,
|
|
22,
|
|
1122,
|
|
#GOGOSTART
|
|
1011,
|
|
1011,
|
|
1011,
|
|
2022,
|
|
1011,
|
|
1011,
|
|
1022,
|
|
700
|
|
#BPMCHANGE 182
|
|
#SCROLL 1.01648351648
|
|
8,
|
|
#GOGOEND
|
|
#BPMCHANGE 185
|
|
#SCROLL 1
|
|
2022,
|
|
#END
|
|
|
|
|
|
|
|
COURSE:Easy
|
|
LEVEL:3
|
|
BALLOON:4,5,5,4
|
|
SCOREINIT:7600
|
|
SCOREDIFF:
|
|
|
|
|
|
|
|
#START
|
|
1,
|
|
1,
|
|
11,
|
|
1,
|
|
1,
|
|
1,
|
|
11,
|
|
3330,
|
|
#GOGOSTART
|
|
11,
|
|
11,
|
|
11,
|
|
22,
|
|
11,
|
|
11,
|
|
12,
|
|
7008,
|
|
#GOGOEND
|
|
1,
|
|
1,
|
|
11,
|
|
1,
|
|
1,
|
|
1,
|
|
11,
|
|
3330,
|
|
1,
|
|
2,
|
|
11,
|
|
1,
|
|
1,
|
|
2,
|
|
11,
|
|
3330,
|
|
2,
|
|
2,
|
|
500000000000000000000000000000000008000000000000,
|
|
,
|
|
2,
|
|
2,
|
|
500000000000000000000000000000000008000000000000,
|
|
,
|
|
2,
|
|
2,
|
|
500000000000000000000000000000000008000000000000,
|
|
,
|
|
11,
|
|
1110,
|
|
1111,
|
|
1,
|
|
#GOGOSTART
|
|
11,
|
|
22,
|
|
1110,
|
|
500000000000000000000008000000000000000000000000,
|
|
11,
|
|
22,
|
|
1110,
|
|
500000000000000000000008000000000000000000000000,
|
|
22,
|
|
12,
|
|
1110,
|
|
500000000000000000000008000000000000000000000000,
|
|
1110,
|
|
1110,
|
|
1111,
|
|
3330,
|
|
#GOGOEND
|
|
10001007,
|
|
00000800,
|
|
22,
|
|
2220,
|
|
10001007,
|
|
00000800,
|
|
22,
|
|
2220,
|
|
#GOGOSTART
|
|
11,
|
|
11,
|
|
11,
|
|
22,
|
|
11,
|
|
11,
|
|
12,
|
|
700
|
|
#BPMCHANGE 182
|
|
#SCROLL 1.01648351648
|
|
8,
|
|
#GOGOEND
|
|
#BPMCHANGE 185
|
|
#SCROLL 1
|
|
2022,
|
|
#END |