Files
TJA-by-song-no/tja/1204.tja
2026-03-04 23:59:27 +09:00

251 lines
2.8 KiB
Plaintext

//TJADB Project
TITLE:Back to Life
TITLEJA:Back to Life
SUBTITLE:--Ayaka Hirahara / Tales of the Rays
SUBTITLEJA:平原綾香 「テイルズ オブ ザ レイズ」より
BPM:105.08
WAVE:Back to Life.ogg
OFFSET:-3.893
DEMOSTART:63.856
//SONG_ID:torays
//Shinuchi: 10730/7270/4810/3410
COURSE:Oni
LEVEL:6
BALLOON:15,7,7,15,7,7,17
SCOREINIT:1070,3610
SCOREDIFF:305
#START
0,
0,
70000800,
11210120,
12111022,
20222012,
1020100020021020,
12221222,
1022102010001011,
2102700000801011,
2102700000801011,
2102700000000080,
0, //13
#BPMCHANGE 105
1112011202021120,
1212011202021120,
2112011201021021,
1021102110221020,
1112011210211120,
1212011210111120,
2112011210121050,
000000000000000008000000000000000000200000100000,
1011210011102010,
1010211101012010,
1011210010112001,
1011200010002101,
#MEASURE 6/4
101020101110211200000000, //26
#MEASURE 4/4
#GOGOSTART
3021102010211022,
1021102011021022,
1021102210211022,
1020201011021022,
1021102010211022,
1021112030222011,
2102700000801011,
2102700000801011,
2102700000000080,
#GOGOEND
0,
#BARLINEOFF
0, //37
#END
COURSE:Hard
LEVEL:4
BALLOON:13,6,6,13,6,6,14
SCOREINIT:1110,5090
SCOREDIFF:353
#START
0,
0,
70000800,
10221020,
11101020,
10221022,
1112,
10221022,
10221011,
2200700000800010,
2200700000800010,
2200700000000080,
0, //13
#BPMCHANGE 105
1011020202011020,
1011020202011020,
1011020201010001,
1001100110201020,
1011020220101020,
1011020220101020,
1011020220101050,
000000000000000008000000000000000000200000100000,
1001200011102000,
1010201101012000,
1001200010102001,
11201020,
#MEASURE 6/4
101020001110201200000000, //26
#MEASURE 4/4
#GOGOSTART
3011102010202020,
1011102010001022,
1000102210001022,
1020200010021020,
1011102010202020,
12123021,
2200700000800010,
2200700000800010,
2200700000000080,
#GOGOEND
0,
#BARLINEOFF
0, //37
#END
COURSE:Normal
LEVEL:3
BALLOON:9,5,5,9,5,5,10
SCOREINIT:1200,7710
SCOREDIFF:478
#START
0,
0,
70000800,
1212,
1210,
1212,
11200010,
1212,
10222010,
20700802,
20700802,
20700008,
0, //13
#BPMCHANGE 105
1010020200001000,
1010020200001000,
1010020200001000,
1111,
1010020200101000,
1010020200101000,
1010020200101050,
000000000000000008000000000000000000200000000000,
10201120,
1212,
10201120,
1202,
#MEASURE 6/4
112011220000, //26
#MEASURE 4/4
#GOGOSTART
30111020,
10111020,
11101110,
22201011,
10201022,
11103022,
20700802,
20700802,
20700008,
#GOGOEND
0,
#BARLINEOFF
0, //37
#END
COURSE:Easy
LEVEL:3
BALLOON:7,4,4,7,4,4,8
SCOREINIT:1190,11450
SCOREDIFF:725
#START
0,
0,
70000800,
11,
1,
11,
1100,
11,
11,
20700800,
20700800,
20700008,
0, //13
#BPMCHANGE 105
11001010,
11001010,
11001010,
1111,
11001010,
11001010,
11001005,
000000000000000008000000000000000000200000000000,
1202,
1202,
1202,
1202,
#MEASURE 6/4
121200, //26
#MEASURE 4/4
#GOGOSTART
3112,
10111020,
1111,
20201011,
1212,
11103000,
20700800,
20700800,
20700008,
#GOGOEND
0,
#BARLINEOFF
0, //37
#END