Files
TJA-by-song-no/tja/127.tja
2026-03-04 23:59:27 +09:00

503 lines
5.6 KiB
Plaintext

//TJADB Project
TITLE:The Tower of Druaga Medley
TITLEJA:ドルアーガの塔メドレー
SUBTITLE:--Junko Ozawa/The Tower of Druaga
BPM:188
WAVE:The Tower of Druaga Medley.ogg
OFFSET:-0.121
DEMOSTART:0.131
COURSE:Oni
LEVEL:8
SCOREINIT:470
SCOREDIFF:123
#START
10112011,
12102110,
101100222102,
100000200100200000101020,
100300011111,
20212010,
111200222100,
111200200112,
100112102112,
100000200100200000100020,
100000011222,
#MEASURE 6/4
100300102100011222,
#MEASURE 4/4
100202200100,
101222112102,
100000200100200000101020,
100300011221,
10212100,
111201222102,
111200200112,
100112102112,
10214000,
1020101020112010,
0020101020211010,
0020101020112010,
02112230,
1020101020112010,
0020101020211010,
0020101020112010,
02112230,
12112121,
12112211,
12112121,
12112210,
1120002210001120,
0022100011200022,
1010112010221010,
1120102210101120,
1000201000201111,
1000201010201120,
1000201020201120,
1000201010201120,
#MEASURE 2/4
13,
#MEASURE 4/4
3000201010201120,
1000201020201120,
1000201010201120,
#MEASURE 2/4
1210,
#MEASURE 4/4
3000201010201120,
1000201020201120,
1000201010201120,
#MEASURE 2/4
11201000,
#MEASURE 4/4
3000201010201120,
1000201020201120,
1000201010201120,
#MEASURE 2/4
11203000,
#MEASURE 4/4
11111111,
22222222,
11111111,
22222222,
500000000000000000000000000000000008000000000000,
12212212,
22122212,
12212212,
22122212,
#MEASURE 9/4
111020100020111020100020111020100020,
#MEASURE 4/4
11111112,
02222230,
#MEASURE 2/4
01,
#GOGOSTART
#MEASURE 4/4
1010201110001111,
1010201110002022,
1010201110201020,
1010201120001000,
1010201110001111,
1010201110002022,
1010201110201020,
1010201120003000,
1020102210201022,
1020102210201022,
1022102210221022,
1022102210001000,
1010201110001111,
1010201110002022,
1020101110201020,
1010201120000000,
#GOGOEND
1121,
1210,
1122,
1210,
10112011,
12112112,
10112011,
12114444,
#END
COURSE:Hard
LEVEL:7
SCOREINIT:440
SCOREDIFF:113
#START
10112010,
12102110,
101100111100,
100200200111,
100100100111,
1220,
111100111100,
100200200111,
100222200111,
100200200101,
100000000111,
#MEASURE 6/4
100300101100000111,
#MEASURE 4/4
100202200000,
101101101101,
100200200111,
100100100111,
10212100,
101101101101,
111100200111,
100222200111,
1240,
1000101020111010,
01112211,
0010101020111010,
01112210,
1000101020111010,
02112211,
0020101020111010,
02112210,
12112021,
02102210,
12012120,
12012210,
1110001110001110,
0011100011100011,
1010111010111010,
1110101110101110,
1000101000101011,
1000201010201110,
1000201010201110,
1000201010201110,
#MEASURE 2/4
13,
#MEASURE 4/4
3000201010201110,
1000201010201110,
1000201010201110,
#MEASURE 2/4
1110,
#MEASURE 4/4
3000201010201110,
1000201010201110,
1000201010201110,
#MEASURE 2/4
1210,
#MEASURE 4/4
3000201010201110,
1000201010201110,
1000201010201110,
#MEASURE 2/4
14,
#MEASURE 4/4
11111111,
11111110,
22222222,
22222222,
500000000000000000000000000000000008000000000000,
12212212,
22122210,
12212212,
22122210,
#MEASURE 9/4
112102112102112102,
#MEASURE 4/4
11111111,
02222210,
#MEASURE 2/4
01,
#MEASURE 4/4
#GOGOSTART
1010201010001111,
1000201110002001,
10211212,
11212010,
1010201010001111,
1000201110002001,
10211212,
11212010,
1111,
12121212,
12121212,
1022202220001000,
1010201010001111,
1000201110002001,
10211212,
11212000,//83
#GOGOEND
1121,
1210,
1122,
1210,
10112011,
12112012,
10112011,
12112222,
#END
COURSE:Normal
LEVEL:6
BALLOON:6
SCOREINIT:750
SCOREDIFF:238
#START
1121,
11102000,
101100100000,
1110,
12,
1220,
101100100000,
1110,
34,
1120,
1110,
#MEASURE 6/4
331110,
#MEASURE 4/4
2200,
101100100000,
101100100000,
12,
1220,
101100100000,
101100100000,
34,
1120,
10001011,
0022,
10001011,
0022,
10001011,
0022,
10001011,
0022,
12,
1120,
12,
1120,
1001,
01,
00100100,
10010010,
1,
10010110,
10110000,
10010110,
#MEASURE 2/4
01,
#MEASURE 4/4
10010110,
10110000,
10010110,
#MEASURE 2/4
01,
#MEASURE 4/4
10010110,
10110000,
10010110,
#MEASURE 2/4
01,
#MEASURE 4/4
10010110,
10110000,
10010110,
#MEASURE 2/4
01,
#MEASURE 4/4
10010010,
00111000,
10010010,
00222000,
500000000000000000000000000000000008000000000000,
10010010,
00111000,
10010010,
00222000,
#MEASURE 9/4
110100110100110100,
#MEASURE 4/4
7,
0804,
#MEASURE 2/4
,
#MEASURE 4/4
#GOGOSTART
1210,
1120,
1212,
1120,
1210,
1120,
1212,
1120,
1011,
1011,
1111,
1220,
1210,
1120,
1212,
1120,//83
#GOGOEND
12,
1120,
11,
1210,
1120,
1121,
1120,
1122,
#END
COURSE:Easy
LEVEL:5
BALLOON:5
SCOREINIT:520
SCOREDIFF:165
#START
12,
1120,
11,
1110,
12,
1,
11,
1110,
34,
1120,
11,
#MEASURE 6/4
111010,
#MEASURE 4/4
2220,
11,
1110,
12,
1220,
11,
1110,
34,
1120,
11,
1022,
12,
1022,
11,
1022,
12,
1022,
11,
1100,
11,
1100,
1001,
03,
0300,
3004,
,
10010010,
10010000,
10010010,
#MEASURE 2/4
1,
#MEASURE 4/4
20020020,
20020000,
20020020,
#MEASURE 2/4
2,
#MEASURE 4/4
10010010,
10010010,
10010010,
#MEASURE 2/4
1,
#MEASURE 4/4
20020020,
20020000,
20020020,
#MEASURE 2/4
2,
#MEASURE 4/4
10010010,
0110,
10010010,
0220,
500000000000000000000000000000000008000000000000,
10010010,
0110,
10010010,
0220,
#MEASURE 9/4
333,
#MEASURE 4/4
7,
0080000000004000,
#MEASURE 2/4
,
#MEASURE 4/4
#GOGOSTART
1110,
2220,
1111,
12,
1110,
2220,
1111,
12,
1011,
1011,
1111,
1,
1110,
2220,
1111,
12,//83
#GOGOEND
11,
22,
11,
1110,
12,
1120,
12,
1022,
#END