Files
TJA-by-song-no/tja/1282.tja
2026-03-04 23:59:27 +09:00

314 lines
3.4 KiB
Plaintext

//TJADB Project
TITLE:Uninhabited Island
TITLEJA:無人の島
TITLEZH:无人之岛
SUBTITLE:--
SUBTITLEJA:
SUBTITLEZH:
BPM:70
WAVE:Uninhabited Island.ogg
OFFSET:-3.138
DEMOSTART:73.419
COURSE:Oni
LEVEL:7
BALLOON:22,42
SCOREINIT:2770
SCOREDIFF:0
#START
2000222220202020,
2000222220202020,
1022122012221220,
2,
1000022210221020,
12210020,
1000002210221212,
1022120110002000,
1221202010002000,
200100200200100000200020000000000000100020002000,
500000000000000000000008000000200000200000200000,
20000222, //12
1000022210221212,
1000201210102000,
1000022210221212,
1022120110002001,
1022120121002001,
1022120112012212,
11211021,
70000081,
#MEASURE 2/4
01012222, //21
#MEASURE 4/4
#GOGOSTART
1011210110221022,
1210202010012102,
1011201210112220,
1011201012112210,
1011210112102101,
1011201120112120,
1110201110112120,
3010202011021120, //29
3000202110112120,
1110202110112120,
1110202110112120,
1110201211212010,
1110201211212010,
1110211210102020, //35
#GOGOEND
2000222220202020,
20002222
#BPMCHANGE 67
#SCROLL 1.04
20202020,
#MEASURE 7/8
#BPMCHANGE 65
#SCROLL 1.07
10221222
#BPMCHANGE 62
#SCROLL 1.12
1222
#BPMCHANGE 50
#SCROLL 1.39
12,
#MEASURE 8/4
#BPMCHANGE 42
#SCROLL 1.66
2200007000008000, //39
#END
COURSE:Hard
LEVEL:4
BALLOON:24,30
SCOREINIT:4490
SCOREDIFF:0
#START
20002220,
20002220,
1000222020202220,
2,
1000022020220020,
10210020,
1000002020220020,
1022020220002000,
1022202020000000,
2022202000001000,
500000000000000000000008000000000000000000000000,
2002, //12
1000022010220200,
10211020,
1000022010220200,
1022020220002000,
1022020202000000,
1022020202002000,
22007000,
08,
#MEASURE 2/4
0, //21
#MEASURE 4/4
#GOGOSTART
1010201010111011,
11210120,
1011100010111020,
1010201010111020,
1010110010102001,
1010201020111000,
1010201010110200,
300100200200500000080000, //29
3000200110111020,
1000200110102010,
1010200110102010,
1000200022202020,
1000200022202020,
1000201110102000, //35
#GOGOEND
20002220,
2000
#BPMCHANGE 67
#SCROLL 1.04
2220,
#MEASURE 7/8
#BPMCHANGE 65
#SCROLL 1.07
10002220
#BPMCHANGE 62
#SCROLL 1.12
2020
#BPMCHANGE 50
#SCROLL 1.39
22,
#MEASURE 8/4
#BPMCHANGE 42
#SCROLL 1.66
2200007000008000, //39
#END
COURSE:Normal
LEVEL:4
BALLOON:18,26
SCOREINIT:7470
SCOREDIFF:0
#START
2022,
2022,
10202220,
2,
22,
20220020,
12,
2022,
10222000,
20222000,
500000000000000000000008000000000000000000000000,
2002, //12
1022,
1012,
1022,
1022,
10222000,
10222020,
17,
08,
#MEASURE 2/4
0, //21
#MEASURE 4/4
#GOGOSTART
11101110,
10220020,
11101110,
10110020,
10101110,
10101110,
10101110,
300100100100500000080000, //29
30201110,
10201110,
10201110,
10202220,
10002220,
10030020, //35
#GOGOEND
2022,
20
#BPMCHANGE 67
#SCROLL 1.04
22,
#MEASURE 7/8
#BPMCHANGE 65
#SCROLL 1.07
1020
#BPMCHANGE 62
#SCROLL 1.12
22
#BPMCHANGE 50
#SCROLL 1.39
2,
#MEASURE 8/4
#BPMCHANGE 42
#SCROLL 1.66
0200007000008000, //39
#END
COURSE:Easy
LEVEL:2
BALLOON:15,20
SCOREINIT:12420
SCOREDIFF:0
#START
22,
22,
1022,
2,
22,
2,
22,
2,
2220,
2220,
500000000000000000000008000000000000000000000000,
2, //12
12,
11,
12,
11,
1220,
1220,
17,
08,
#MEASURE 2/4
0, //21
#MEASURE 4/4
#GOGOSTART
1111,
1002,
1111,
500000000000000008000000000000000000000000000000,
11,
1111,
1011,
500000000000000000000000000008000000000000000000, //29
3011,
1011,
1011,
1022,
2022,
20030000, //35
#GOGOEND
22,
2
#BPMCHANGE 67
#SCROLL 1.04
2,
#MEASURE 7/8
#BPMCHANGE 65
#SCROLL 1.07
1000
#BPMCHANGE 62
#SCROLL 1.12
20
#BPMCHANGE 50
#SCROLL 1.39
2,
#MEASURE 8/4
#BPMCHANGE 42
#SCROLL 1.66
0200007000008000, //39
#END