1128 lines
12 KiB
Plaintext
1128 lines
12 KiB
Plaintext
//TJADB Project
|
||
TITLE:Synthesis.
|
||
TITLEJA:Synthesis.
|
||
SUBTITLE:--tn-shi from "Cosmic Radio 2024"
|
||
SUBTITLEJA:tn-shi from "Cosmic Radio 2024"
|
||
BPM:180
|
||
WAVE:Synthesis.ogg
|
||
OFFSET:-1.643
|
||
DEMOSTART:44.303
|
||
|
||
COURSE:Edit
|
||
LEVEL:10
|
||
BALLOON:43,6
|
||
SCOREINIT:1000
|
||
SCOREDIFF:0
|
||
|
||
#START
|
||
#SCROLL 1.33
|
||
#GOGOSTART
|
||
3003004004003022,
|
||
2030030040040030,
|
||
4004003003002222,
|
||
111111211111211111211111,
|
||
#GOGOEND
|
||
|
||
7,
|
||
00000008,
|
||
500000000000000000000000000000000000000000000008,
|
||
|
||
#MEASURE 1/4
|
||
0,
|
||
#SCROLL 1.24
|
||
0,
|
||
#SCROLL 1.15
|
||
0,
|
||
#SCROLL 1.07
|
||
0, //11
|
||
|
||
#MEASURE 4/4
|
||
#SCROLL 1
|
||
1001001021001001,
|
||
0010210010012012,
|
||
1001001021001001,
|
||
0010210040220220,
|
||
|
||
3022011022011022,
|
||
1102211022211122,
|
||
10201020102010201010101011101010,
|
||
00222000202000201020222000222000, //19
|
||
|
||
#GOGOSTART
|
||
300000000000200000100000000000200000200000200000000000100100200000000000100010001000100010001000,
|
||
10002000102220201020100020202000,
|
||
100000000000200000100000000000200200000000200200100000000000100020001000200000000000200000200000,
|
||
11100020101020201010102010202020,
|
||
|
||
100000000000200000100000000000200000200000200000000000100100200000000000100010001000100010001000,
|
||
10002000102220201020100020202000,
|
||
3021040030212203,
|
||
#GOGOEND
|
||
00222000202010100020102000222000, //27
|
||
|
||
#GOGOSTART
|
||
30001020111020001000102010100010,
|
||
22001000102020201010101022002200,
|
||
10001111201000100020101020201020,
|
||
100010001000200000000000100000200000200000200000100100100000000000200200200000000000200200200000,
|
||
|
||
100000101010200200100200100000200100000200200100,
|
||
10200010202010201010101022202000,
|
||
3021004030212060,
|
||
000000000000000000000080000000000000300000000000000000400000000000000000200100000000400000000000, //35
|
||
#GOGOEND
|
||
|
||
3002102012001022,
|
||
1020120010021020,
|
||
10000020100020001020000010001110,
|
||
2210120020021020,
|
||
|
||
100000000200100000200000100200000000100000202020,
|
||
1120120010021222,
|
||
111111222222111111222222,
|
||
7000800020020020, //43
|
||
|
||
3,
|
||
0,
|
||
1,
|
||
2,
|
||
|
||
1002002002002002,
|
||
1020020010021020,
|
||
1002002002001002,
|
||
100000200000000200000000500000000000000008000000, //51
|
||
|
||
100000000000000000000000000000000000000000000000200200000000000000200000000000000000100010000000,
|
||
100010001000220000002000,
|
||
3002112211212212,
|
||
1111211221221211,
|
||
|
||
20001010102020102020111020201020,
|
||
10202010102011000010101020201010,
|
||
200000000000000010000000200000002000000010000000200200000000000000200000000000100000000100000000,
|
||
200000001000000010000000200200000000000000100000000000000000100000000000200000000000200200200000, //59
|
||
|
||
10000020000020000020000020000022,
|
||
2020020020020020,
|
||
10000020000020000020000020000022,
|
||
2020020020020020,
|
||
|
||
10000020000020000020000020000022,
|
||
1020020020020020,
|
||
10000020000020000020000020000022,
|
||
10002000002000002000002200002000, //67
|
||
|
||
10000020000020001020000020000022,
|
||
1020020010020020,
|
||
10000020100020001020000010000022,
|
||
1020120010021020,
|
||
|
||
1000111122221111,
|
||
200000100200200100200000202000100100202000200100, //73
|
||
|
||
#MEASURE 1/4
|
||
2,
|
||
#SCROLL 1.02
|
||
0,
|
||
#SCROLL 1.04
|
||
0,
|
||
#SCROLL 1.06
|
||
0,
|
||
|
||
#MEASURE 1/8
|
||
#SCROLL 1.07
|
||
0,
|
||
#SCROLL 1.09
|
||
0,
|
||
#SCROLL 1.11
|
||
0,
|
||
#SCROLL 1.13
|
||
0, //81
|
||
|
||
#MEASURE 1/16
|
||
#SCROLL 1.15
|
||
0,
|
||
#SCROLL 1.18
|
||
0,
|
||
#SCROLL 1.2
|
||
0,
|
||
#SCROLL 1.22
|
||
0,
|
||
#SCROLL 1.24
|
||
0,
|
||
#SCROLL 1.26
|
||
0,
|
||
#SCROLL 1.29
|
||
0,
|
||
#SCROLL 1.31
|
||
0, //89
|
||
|
||
#MEASURE 4/4
|
||
#SCROLL 1.33
|
||
#GOGOSTART
|
||
3021012011201022,
|
||
201010200000100200000200100100200100000100200000,
|
||
30002010001020001010200010001110,
|
||
2210120212210220,
|
||
|
||
300000200100000100200000100100200000100000202020,
|
||
201010200000100200000200100100200100000100200000,
|
||
3021012011201222, //96
|
||
1000
|
||
#SCROLL 1.29
|
||
2
|
||
#SCROLL 1.27
|
||
2
|
||
#SCROLL 1.26
|
||
20
|
||
#SCROLL 1.24
|
||
1000
|
||
#SCROLL 1.2
|
||
2
|
||
#SCROLL 1.19
|
||
2
|
||
#SCROLL 1.18
|
||
20
|
||
#SCROLL 1.15
|
||
1000
|
||
#SCROLL 1.11
|
||
2
|
||
#SCROLL 1.1
|
||
2
|
||
#SCROLL 1.09
|
||
20
|
||
#SCROLL 1.07
|
||
1000
|
||
#SCROLL 1.04
|
||
2
|
||
#SCROLL 1.03
|
||
2
|
||
#SCROLL 1.02
|
||
20, //97
|
||
#GOGOEND
|
||
|
||
#SCROLL 1
|
||
10000020000020000020100020001110,
|
||
10002000002000002000102200002000,
|
||
10000020000020000020100020001220,
|
||
10102020102010102200201000202010,
|
||
|
||
200000000000100100200100100200100200200200101010,
|
||
200020001000100010001000200000100000100200000000000000200000100000200000100000100000200000200000,
|
||
111222111222111222111222,
|
||
112211221122111122221212, //105
|
||
|
||
#GOGOSTART
|
||
10000000111111112000000011111000,
|
||
0222100040012220,
|
||
100000000100000000101010200000000100000200100000,
|
||
22200010201010004000202000201020,
|
||
|
||
10000000111111112010001011111000,
|
||
20100021001000004000102020202020,
|
||
10002010000010002111111120001010,
|
||
00001111201110201110101020202222, //113
|
||
#GOGOEND
|
||
|
||
1002002002002000,
|
||
0020020020020020,
|
||
4,
|
||
0,
|
||
0, //118
|
||
#END
|
||
|
||
|
||
COURSE:Oni
|
||
LEVEL:9
|
||
BALLOON:30,13,12,32
|
||
SCOREINIT:1320
|
||
SCOREDIFF:0
|
||
|
||
#START
|
||
#SCROLL 1.33
|
||
#GOGOSTART
|
||
3003003003004000,
|
||
0030030040040040,
|
||
3003003003004000,
|
||
111100111100222200222200,
|
||
#GOGOEND
|
||
|
||
7,
|
||
00000008,
|
||
500000000000000000000000000000000000000000000008,
|
||
|
||
#MEASURE 1/4
|
||
0,
|
||
#SCROLL 1.24
|
||
0,
|
||
#SCROLL 1.15
|
||
0,
|
||
#SCROLL 1.07
|
||
0, //11
|
||
|
||
#MEASURE 4/4
|
||
#SCROLL 1
|
||
1002201022001002,
|
||
2010220010022010,
|
||
1002201022001002,
|
||
2010220010220220,
|
||
|
||
3020102011112010,
|
||
3020102011112010,
|
||
1111222211112222,
|
||
70000008, //19
|
||
|
||
#GOGOSTART
|
||
3022120210201122,
|
||
1020120210112220,
|
||
1022120210221120,
|
||
1020120211112222,
|
||
|
||
1022120210201122,
|
||
1020120210112220,
|
||
3020120030201201,
|
||
#GOGOEND
|
||
7008, //27
|
||
|
||
#GOGOSTART
|
||
3022120110221120,
|
||
1020122210121020,
|
||
1022120110201122,
|
||
1020112211022020,
|
||
|
||
1022120110221120,
|
||
1020122210221120,
|
||
3020120030212050,
|
||
000000000008000000300000000400000000600008000000, //35
|
||
#GOGOEND
|
||
|
||
1001102012102011,
|
||
1020121020021020,
|
||
1001102012102011,
|
||
1020121020020020,
|
||
|
||
1001102012102011,
|
||
1020121020021020,
|
||
111100111100222200222200,
|
||
1000000020020020, //43
|
||
|
||
3,
|
||
0,
|
||
2,
|
||
2,
|
||
|
||
1,
|
||
0,
|
||
1,
|
||
2, //51
|
||
|
||
12,
|
||
222200,
|
||
3000201110102012,
|
||
0210201110102022,
|
||
|
||
1000201110102012,
|
||
0210201012102022,
|
||
1000201011102010,
|
||
1210201101102022, //59
|
||
|
||
1000202020202022,
|
||
20222222,
|
||
1000202020202022,
|
||
20222222,
|
||
|
||
1000202020202022,
|
||
10222222,
|
||
1000202020202022,
|
||
10222222, //67
|
||
|
||
1000202010202022,
|
||
12221222,
|
||
1020102010201022,
|
||
12121212,
|
||
|
||
1020101010201012,
|
||
12111211, //73
|
||
|
||
#MEASURE 1/4
|
||
3,
|
||
#SCROLL 1.02
|
||
0,
|
||
#SCROLL 1.04
|
||
0,
|
||
#SCROLL 1.06
|
||
0,
|
||
|
||
#MEASURE 1/8
|
||
#SCROLL 1.07
|
||
0,
|
||
#SCROLL 1.09
|
||
0,
|
||
#SCROLL 1.11
|
||
0,
|
||
#SCROLL 1.13
|
||
0, //81
|
||
|
||
#MEASURE 1/16
|
||
#SCROLL 1.15
|
||
0,
|
||
#SCROLL 1.18
|
||
0,
|
||
#SCROLL 1.2
|
||
0,
|
||
#SCROLL 1.22
|
||
0,
|
||
#SCROLL 1.24
|
||
0,
|
||
#SCROLL 1.26
|
||
0,
|
||
#SCROLL 1.29
|
||
0,
|
||
#SCROLL 1.31
|
||
0, //89
|
||
|
||
#MEASURE 4/4
|
||
#SCROLL 1.33
|
||
#GOGOSTART
|
||
3021012011201022,
|
||
1020122010210220,
|
||
1021012011201022,
|
||
1020122010220220,
|
||
|
||
1021012011201022,
|
||
1020122010210220,
|
||
1021012011201022, //96
|
||
1000
|
||
#SCROLL 1.29
|
||
2
|
||
#SCROLL 1.27
|
||
0
|
||
#SCROLL 1.26
|
||
10
|
||
#SCROLL 1.24
|
||
2000
|
||
#SCROLL 1.2
|
||
1
|
||
#SCROLL 1.19
|
||
0
|
||
#SCROLL 1.18
|
||
20
|
||
#SCROLL 1.15
|
||
1000
|
||
#SCROLL 1.11
|
||
2
|
||
#SCROLL 1.1
|
||
0
|
||
#SCROLL 1.09
|
||
10
|
||
#SCROLL 1.07
|
||
2000
|
||
#SCROLL 1.04
|
||
1
|
||
#SCROLL 1.03
|
||
0
|
||
#SCROLL 1.02
|
||
20, //97
|
||
#GOGOEND
|
||
|
||
#SCROLL 1
|
||
1002002002102011,
|
||
0020020020120020,
|
||
1002002002102011,
|
||
2210121020220211,
|
||
|
||
2000111122221111,
|
||
2011112000222210,
|
||
111100200111100200111100,
|
||
500000000000000008000000600000000000000008000000, //105
|
||
|
||
#GOGOSTART
|
||
3000111120001110,
|
||
0012100020001120,
|
||
1001001020010210,
|
||
1001011020220222,
|
||
|
||
1000111120011210,
|
||
1101010020111122,
|
||
1001001021112010,
|
||
0011211022122122, //113
|
||
#GOGOEND
|
||
|
||
7,
|
||
0,
|
||
8,
|
||
0,
|
||
0, //118
|
||
#END
|
||
|
||
|
||
COURSE:Hard
|
||
LEVEL:7
|
||
BALLOON:24,10,26
|
||
SCOREINIT:2320
|
||
SCOREDIFF:0
|
||
|
||
#START
|
||
#SCROLL 1.33
|
||
#GOGOSTART
|
||
3003003003004000,
|
||
0030030040040040,
|
||
3003003003004000,
|
||
3344,
|
||
#GOGOEND
|
||
|
||
7,
|
||
00000008,
|
||
500000000000000000000000000000000000000000000008,
|
||
|
||
#MEASURE 1/4
|
||
0,
|
||
#SCROLL 1.24
|
||
0,
|
||
#SCROLL 1.15
|
||
0,
|
||
#SCROLL 1.07
|
||
0, //11
|
||
|
||
#MEASURE 4/4
|
||
#SCROLL 1
|
||
10010010,
|
||
01002020,
|
||
10010010,
|
||
01002000,
|
||
|
||
1000100010111000,
|
||
1000100010111000,
|
||
500000000000000000000000000000000000000000000008,
|
||
0, //19
|
||
|
||
#GOGOSTART
|
||
1000200010111010,
|
||
10121020,
|
||
1000200010111010,
|
||
1000100022202020,
|
||
|
||
1000200010111010,
|
||
10121020,
|
||
1010110010101100,
|
||
#GOGOEND
|
||
7008, //27
|
||
|
||
#GOGOSTART
|
||
1000200010111010,
|
||
10121020,
|
||
1000200010111010,
|
||
1000111020020020,
|
||
|
||
1000200010111010,
|
||
10121020,
|
||
1010110010111050,
|
||
000000000008000000600000000000000008000000000000, //35
|
||
#GOGOEND
|
||
|
||
10121120,
|
||
1020100020002220,
|
||
10121120,
|
||
1020100020222000,
|
||
|
||
10121120,
|
||
1020100020002220,
|
||
500000000000000000000000000000000000000000000008,
|
||
0, //43
|
||
|
||
3,
|
||
0,
|
||
2,
|
||
2,
|
||
|
||
1,
|
||
0,
|
||
1,
|
||
2, //51
|
||
|
||
12,
|
||
22,
|
||
30200121,
|
||
01200120,
|
||
|
||
10200121,
|
||
01200120,
|
||
10210021,
|
||
10210120, //59
|
||
|
||
10202220,
|
||
20202222,
|
||
10202220,
|
||
20202222,
|
||
|
||
10202220,
|
||
10202222,
|
||
10202220,
|
||
10202222, //67
|
||
|
||
10201220,
|
||
10201222,
|
||
10201212,
|
||
10201212,
|
||
|
||
10101111,
|
||
10101111, //73
|
||
|
||
#MEASURE 1/4
|
||
3,
|
||
#SCROLL 1.02
|
||
0,
|
||
#SCROLL 1.04
|
||
0,
|
||
#SCROLL 1.06
|
||
0,
|
||
|
||
#MEASURE 1/8
|
||
#SCROLL 1.07
|
||
0,
|
||
#SCROLL 1.09
|
||
0,
|
||
#SCROLL 1.11
|
||
0,
|
||
#SCROLL 1.13
|
||
0, //81
|
||
|
||
#MEASURE 1/16
|
||
#SCROLL 1.15
|
||
0,
|
||
#SCROLL 1.18
|
||
0,
|
||
#SCROLL 1.2
|
||
0,
|
||
#SCROLL 1.22
|
||
0,
|
||
#SCROLL 1.24
|
||
0,
|
||
#SCROLL 1.26
|
||
0,
|
||
#SCROLL 1.29
|
||
0,
|
||
#SCROLL 1.31
|
||
0, //89
|
||
|
||
#MEASURE 4/4
|
||
#SCROLL 1.33
|
||
#GOGOSTART
|
||
3000102011102000,
|
||
1020100011102020,
|
||
1000102011102000,
|
||
1020100022202020,
|
||
|
||
1000102011102000,
|
||
1020100011102020,
|
||
1000102011102000, //96
|
||
3000
|
||
#SCROLL 1.29
|
||
0
|
||
#SCROLL 1.27
|
||
0
|
||
#SCROLL 1.26
|
||
00
|
||
#SCROLL 1.24
|
||
3000
|
||
#SCROLL 1.2
|
||
0
|
||
#SCROLL 1.19
|
||
0
|
||
#SCROLL 1.18
|
||
00
|
||
#SCROLL 1.15
|
||
3000
|
||
#SCROLL 1.11
|
||
0
|
||
#SCROLL 1.1
|
||
0
|
||
#SCROLL 1.09
|
||
00
|
||
#SCROLL 1.07
|
||
3000
|
||
#SCROLL 1.04
|
||
0
|
||
#SCROLL 1.03
|
||
0
|
||
#SCROLL 1.02
|
||
00, //97
|
||
#GOGOEND
|
||
|
||
#SCROLL 1
|
||
30002120,
|
||
02102101,
|
||
10002120,
|
||
1110100020220020,
|
||
|
||
1000111010101000,
|
||
2000222000202000,
|
||
5,
|
||
000000000000000000000000000000000008000000000000, //105
|
||
|
||
#GOGOSTART
|
||
3000111020001110,
|
||
01102000,
|
||
1001001020010010,
|
||
1001011020000000,
|
||
|
||
1000111020010010,
|
||
1101010020000000,
|
||
3003003003004000,
|
||
0030030040040040, //113
|
||
#GOGOEND
|
||
|
||
7,
|
||
0,
|
||
8,
|
||
0,
|
||
0, //118
|
||
#END
|
||
|
||
|
||
COURSE:Normal
|
||
LEVEL:6
|
||
BALLOON:13,5,16
|
||
SCOREINIT:3290
|
||
SCOREDIFF:0
|
||
|
||
#START
|
||
#SCROLL 1.33
|
||
#GOGOSTART
|
||
3003003000000000,
|
||
0030030030000000,
|
||
3003003000000000,
|
||
4444,
|
||
#GOGOEND
|
||
|
||
7,
|
||
00000008,
|
||
500000000000000000000000000000000000000000000008,
|
||
|
||
#MEASURE 1/4
|
||
0,
|
||
#SCROLL 1.24
|
||
0,
|
||
#SCROLL 1.15
|
||
0,
|
||
#SCROLL 1.07
|
||
0, //11
|
||
|
||
#MEASURE 4/4
|
||
#SCROLL 1
|
||
11,
|
||
1022,
|
||
11,
|
||
12,
|
||
|
||
10101110,
|
||
10101110,
|
||
500000000000000000000000000000000000000000000008,
|
||
0, //19
|
||
|
||
#GOGOSTART
|
||
30101110,
|
||
1122,
|
||
10101110,
|
||
2220,
|
||
|
||
30101110,
|
||
1122,
|
||
10101210,
|
||
#GOGOEND
|
||
7008, //27
|
||
|
||
#GOGOSTART
|
||
30101110,
|
||
10102220,
|
||
10101110,
|
||
20222000,
|
||
|
||
30101110,
|
||
10102220,
|
||
5,
|
||
000000000000000000000000000000000008000000000000, //35
|
||
#GOGOEND
|
||
|
||
10101120,
|
||
11102020,
|
||
10101120,
|
||
11102000,
|
||
|
||
10101120,
|
||
11102020,
|
||
500000000000000000000000000000000000000000000008,
|
||
0, //43
|
||
|
||
3,
|
||
0,
|
||
0,
|
||
0,
|
||
|
||
2,
|
||
0,
|
||
2,
|
||
2, //51
|
||
|
||
1,
|
||
2,
|
||
30200120,
|
||
00200120,
|
||
|
||
10200120,
|
||
00200120,
|
||
10200021,
|
||
10200120, //59
|
||
|
||
11,
|
||
10001110,
|
||
22,
|
||
20002220,
|
||
|
||
1011,
|
||
10001110,
|
||
2022,
|
||
20002220, //67
|
||
|
||
1111,
|
||
10101110,
|
||
2222,
|
||
20202220,
|
||
|
||
10101110,
|
||
10101110, //73
|
||
|
||
#MEASURE 1/4
|
||
3,
|
||
#SCROLL 1.02
|
||
0,
|
||
#SCROLL 1.04
|
||
0,
|
||
#SCROLL 1.06
|
||
0,
|
||
|
||
#MEASURE 1/8
|
||
#SCROLL 1.07
|
||
0,
|
||
#SCROLL 1.09
|
||
0,
|
||
#SCROLL 1.11
|
||
0,
|
||
#SCROLL 1.13
|
||
0, //81
|
||
|
||
#MEASURE 1/16
|
||
#SCROLL 1.15
|
||
0,
|
||
#SCROLL 1.18
|
||
0,
|
||
#SCROLL 1.2
|
||
0,
|
||
#SCROLL 1.22
|
||
0,
|
||
#SCROLL 1.24
|
||
0,
|
||
#SCROLL 1.26
|
||
0,
|
||
#SCROLL 1.29
|
||
0,
|
||
#SCROLL 1.31
|
||
0, //89
|
||
|
||
#MEASURE 4/4
|
||
#SCROLL 1.33
|
||
#GOGOSTART
|
||
10121120,
|
||
12101020,
|
||
10121120,
|
||
12102022,
|
||
|
||
10121120,
|
||
12101020,
|
||
10121120, //96
|
||
3000
|
||
#SCROLL 1.29
|
||
0
|
||
#SCROLL 1.27
|
||
0
|
||
#SCROLL 1.26
|
||
00
|
||
#SCROLL 1.24
|
||
3000
|
||
#SCROLL 1.2
|
||
0
|
||
#SCROLL 1.19
|
||
0
|
||
#SCROLL 1.18
|
||
00
|
||
#SCROLL 1.15
|
||
3000
|
||
#SCROLL 1.11
|
||
0
|
||
#SCROLL 1.1
|
||
0
|
||
#SCROLL 1.09
|
||
00
|
||
#SCROLL 1.07
|
||
3000
|
||
#SCROLL 1.04
|
||
0
|
||
#SCROLL 1.03
|
||
0
|
||
#SCROLL 1.02
|
||
00, //97
|
||
#GOGOEND
|
||
|
||
#SCROLL 1
|
||
30002120,
|
||
0122,
|
||
10002120,
|
||
10112000,
|
||
|
||
10101110,
|
||
20220220,
|
||
5,
|
||
000000000000000000000000000008000000000000000000, //105
|
||
|
||
#GOGOSTART
|
||
30002011,
|
||
0121,
|
||
10002011,
|
||
00112020,
|
||
|
||
10002011,
|
||
0120,
|
||
3003003000004000,
|
||
0030030030000000, //113
|
||
#GOGOEND
|
||
|
||
7,
|
||
0,
|
||
8,
|
||
0,
|
||
0, //118
|
||
#END
|
||
|
||
|
||
COURSE:Easy
|
||
LEVEL:4
|
||
BALLOON:11,4,15
|
||
SCOREINIT:5040
|
||
SCOREDIFF:0
|
||
|
||
#START
|
||
#SCROLL 1.33
|
||
#GOGOSTART
|
||
30030000,
|
||
03003000,
|
||
30030000,
|
||
4444,
|
||
#GOGOEND
|
||
|
||
7,
|
||
00000008,
|
||
500000000000000000000000000000000000000000000008,
|
||
|
||
#MEASURE 1/4
|
||
0,
|
||
#SCROLL 1.24
|
||
0,
|
||
#SCROLL 1.15
|
||
0,
|
||
#SCROLL 1.07
|
||
0, //11
|
||
|
||
#MEASURE 4/4
|
||
#SCROLL 1
|
||
11,
|
||
1011,
|
||
11,
|
||
1,
|
||
|
||
1110,
|
||
1110,
|
||
500000000000000000000000000000000000000000000008,
|
||
0, //19
|
||
|
||
#GOGOSTART
|
||
3011,
|
||
1120,
|
||
1011,
|
||
2220,
|
||
|
||
3011,
|
||
1120,
|
||
1111,
|
||
#GOGOEND
|
||
7008, //27
|
||
|
||
#GOGOSTART
|
||
3011,
|
||
1120,
|
||
1011,
|
||
2220,
|
||
|
||
3011,
|
||
1120,
|
||
5,
|
||
000000000000000008000000000000000000000000000000, //35
|
||
#GOGOEND
|
||
|
||
1111,
|
||
0120,
|
||
1111,
|
||
0220,
|
||
|
||
1111,
|
||
0120,
|
||
500000000000000000000000000000000000000000000008,
|
||
0, //43
|
||
|
||
3,
|
||
0,
|
||
0,
|
||
0,
|
||
|
||
2,
|
||
0,
|
||
2,
|
||
2, //51
|
||
|
||
1,
|
||
0,
|
||
1202,
|
||
0200,
|
||
|
||
1202,
|
||
0200,
|
||
1202,
|
||
0200, //59
|
||
|
||
1,
|
||
11,
|
||
2,
|
||
22,
|
||
|
||
11,
|
||
11,
|
||
22,
|
||
22, //67
|
||
|
||
1011,
|
||
11,
|
||
2022,
|
||
22,
|
||
|
||
1011,
|
||
1111, //73
|
||
|
||
#MEASURE 1/4
|
||
3,
|
||
#SCROLL 1.02
|
||
0,
|
||
#SCROLL 1.04
|
||
0,
|
||
#SCROLL 1.06
|
||
0,
|
||
|
||
#MEASURE 1/8
|
||
#SCROLL 1.07
|
||
0,
|
||
#SCROLL 1.09
|
||
0,
|
||
#SCROLL 1.11
|
||
0,
|
||
#SCROLL 1.13
|
||
0, //81
|
||
|
||
#MEASURE 1/16
|
||
#SCROLL 1.15
|
||
0,
|
||
#SCROLL 1.18
|
||
0,
|
||
#SCROLL 1.2
|
||
0,
|
||
#SCROLL 1.22
|
||
0,
|
||
#SCROLL 1.24
|
||
0,
|
||
#SCROLL 1.26
|
||
0,
|
||
#SCROLL 1.29
|
||
0,
|
||
#SCROLL 1.31
|
||
0, //89
|
||
|
||
#MEASURE 4/4
|
||
#SCROLL 1.33
|
||
#GOGOSTART
|
||
1111,
|
||
0120,
|
||
1111,
|
||
0220,
|
||
|
||
1111,
|
||
0120,
|
||
1110, //96
|
||
3000
|
||
#SCROLL 1.29
|
||
0
|
||
#SCROLL 1.27
|
||
0
|
||
#SCROLL 1.26
|
||
00
|
||
#SCROLL 1.24
|
||
3000
|
||
#SCROLL 1.2
|
||
0
|
||
#SCROLL 1.19
|
||
0
|
||
#SCROLL 1.18
|
||
00
|
||
#SCROLL 1.15
|
||
3000
|
||
#SCROLL 1.11
|
||
0
|
||
#SCROLL 1.1
|
||
0
|
||
#SCROLL 1.09
|
||
00
|
||
#SCROLL 1.07
|
||
3000
|
||
#SCROLL 1.04
|
||
0
|
||
#SCROLL 1.03
|
||
0
|
||
#SCROLL 1.02
|
||
00, //97
|
||
#GOGOEND
|
||
|
||
#SCROLL 1
|
||
3022,
|
||
0120,
|
||
1022,
|
||
1120,
|
||
|
||
1111,
|
||
2200,
|
||
5,
|
||
000000000000000000000000000008000000000000000000, //105
|
||
|
||
#GOGOSTART
|
||
3021,
|
||
0120,
|
||
1121,
|
||
0122,
|
||
|
||
1021,
|
||
0120,
|
||
3344,
|
||
0344, //113
|
||
#GOGOEND
|
||
|
||
7,
|
||
0,
|
||
8,
|
||
0,
|
||
0, //118
|
||
#END |