Files
TJA-by-song-no/tja/141.tja
2026-03-04 23:59:27 +09:00

542 lines
5.4 KiB
Plaintext
Raw Permalink Blame History

This file contains ambiguous Unicode characters
This file contains Unicode characters that might be confused with other characters. If you think that this is intentional, you can safely ignore this warning. Use the Escape button to reveal them.
//TJADB Project
TITLE:Fly away
TITLEJA:Fly away
SUBTITLE:--Fushimi Gaku/FOCUS ON (Nijisanji) x Taiko no Tatsujin
SUBTITLEJA:伏見ガク / FOCUS ON (にじさんじ) × 太鼓の達人
BPM:200
WAVE:Fly away (Nijisanji).ogg
OFFSET:-1.422
DEMOSTART:39.818
//Shinuchi: 4040/3300/1940/1600
COURSE:Oni
LEVEL:7
BALLOON:
SCOREINIT:490,1730
SCOREDIFF:125
#START
20000002,
0,
20000022,
30030030,
2000200020001111,
1010001010002011,
10201121,
01201120, //8
10201121,
01210120,
10201120,
10210340,
0000200020222022,
2010100020102011,
10201121,
01201120, //16
10201121,
01210120,
10201120,
11210120,
1000202210201000,
10211120,
10210120,
10211120, //24
10210120,
10210121,
10210120,
10210121,
10210120,
1000221000112000,
0010200020111011,
1010003030003000, //32
#GOGOSTART
1010201110102010,
0010201110102010,
0010201110102010,
3333,
1011202010222010,
01201120,
1020102010201011,
1010101011112000, //40
1010201110102010,
0010201110102010,
0010201110102010,
3333,
1011202010222010,
01201120,
12121210,
33034033,
03403030, //49
#GOGOEND
11211121,
11211121,
11210121,
01211020,
11211121,
11211121,
1000200010102022,
1122, //57
10101210,
10101210,
10101210,
10101120,
10110122,
0000300000202022,
1000221000221000,
2210002210003000,
6,
000000000000000000000000000000000000000000000008, //67
00202202,
00202202,
0222,
10101110,
10201121,
01201120,
1000100010102011,
1010101011112000, //75
#GOGOSTART
1010201110102010,
0010201110102010,
0010201110102010,
3333,
1011202010222010,
01201120,
12121210,
3030003040002211, //83
1010201110102011,
1010201110102011,
1010201110102010,
3333,
1011202010222010,
0010200022202220,
12121212,
1120201000201120, //91
2010002211201000,
40300300,
3300,
#GOGOEND
0,
0,
0, //97
#END
COURSE:Hard
LEVEL:5
BALLOON:
SCOREINIT:460,2270
SCOREDIFF:118
#START
20000002,
0,
20000022,
30030030,
2222,
33033040,
10201120,
10201120, //8
10201120,
10210120,
10201120,
10210340,
00202220,
2020100020202011,
10201120,
10201120, //16
10201120,
10210120,
10201120,
11210120,
1000222010001000,
10201110,
10200120,
10201110, //24
10200120,
10201120,
10221120,
10201120,
10221120,
1500,
000000000000000000000000000000000008000000000000,
33033030, //32
#GOGOSTART
10201121,
01201121,
01201120,
3333,
600000000000000000000000000000000000000008000000,
00201120,
10101120,
1010101011102000, //40
10201121,
01201121,
01201120,
3336,
0,
000008000000000000000000100000100000200000000000,
10201120,
33034033,
03403030, //49
#GOGOEND
11201121,
01211020,
11201121,
01211020,
10110110,
11011020,
10201121,
1122, //57
10101210,
10101210,
10101210,
10101120,
10110122,
00300222,
30430430,
43043030,
11111111,
11111122, //67
20202202,
00202202,
0222,
10101110,
10201121,
01201120,
10101120,
1010101011102000, //75
#GOGOSTART
10201121,
01201121,
01201120,
3336,
0,
000008000000000000000000100000100000200000000000,
10201120,
33034030, //83
10201121,
01201121,
01201120,
3336,
0,
000008000000000000000000100000100000200200200000,
10201120,
33034033, //91
03403030,
40300300,
3300,
#GOGOEND
0,
0,
0, //97
#END
COURSE:Normal
LEVEL:5
BALLOON:5,13,5
SCOREINIT:620,4100
SCOREDIFF:173
#START
20000002,
0,
2,
30030030,
0,
40040040,
1110,
1110, //8
11,
1110,
1120,
1125,
000000000000000000000000000000000000000000000008,
0,
1110,
1110, //16
11,
1110,
1120,
1120,
1001,
1001,
1001,
1001, //24
1001,
1110,
0222,
1011,
10010010,
1500,
000000000000000000000000000000000008000000000000,
0003, //32
#GOGOSTART
00101101,
00101101,
0111,
3333,
600000000000000000000000000000000000000008000000,
0222,
10101110,
7000000000080000, //40
00101101,
00101101,
0111,
3336,
0,
000008000000000000000000200000000000200000000000,
1110,
33030033,
03303030, //49
#GOGOEND
10101110,
10101110,
10101110,
1122,
00100100,
10010010,
0110,
1122, //57
1011,
0011,
11,
1122,
10050000,
000000000008000000000000000000000000000000000000,
30030030,
09000000,
000000000000000000000009000000000000000000000800,
0, //67
00202202,
00202202,
0222,
10101110,
500000000000000000000000000000000000000008000000,
0222,
10101110,
7000000000080000, //75
#GOGOSTART
00101101,
00101101,
0111,
3336,
0,
000008000000000000000000200000000000200000000000,
11,
33030030,
00101101,
00101101,
0111,
3336,
0,
000008000000000000000000200000000000200000000000,
1110,
33030033, //91
03303030,
00300300,
3300,
#GOGOEND
0,
0,
0, //97
#END
COURSE:Easy
LEVEL:4
BALLOON:3,10,3
SCOREINIT:460,5090
SCOREDIFF:130
#START
20000002,
0,
2,
30030030,
0,
40040040,
11,
1, //8
11,
1110,
12,
1025,
000000000000000000000000000000000000000000000008,
0,
11,
1, //16
11,
1110,
12,
12,
1001,
1001,
1002,
2002, //24
2001,
1110,
0222,
1011,
10010010,
1500,
000000000000000000000000000000000008000000000000,
0003, //32
#GOGOSTART
0110,
0110,
0111,
3333,
600000000000000000000000000000000000000008000000,
0222,
1111,
7000000000080000, //40
0110,
0110,
0111,
3336,
0,
000008000000000000000000200000000000200000000000,
1110,
30030030,
03003030, //49
#GOGOEND
1011,
11,
1011,
0,
00100100,
10010010,
0110,
1122, //57
1011,
0011,
11,
1122,
10050000,
000000000008000000000000000000000000000000000000,
30030030,
09000000,
000000000000000000000009000000000000000000000800,
0, //67
00202002,
00202002,
0222,
1111,
500000000000000000000000000000000000000008000000,
0222,
1111,
7000000000080000, //75
#GOGOSTART
00101001,
00101001,
0111,
3336,
0,
000008000000000000000000200000000000200000000000,
11,
30030030, //83
00101001,
00101001,
0111,
3336,
0,
000008000000000000000000200000000000200000000000,
11,
30030030, //91
03003030,
00300300,
3300,
#GOGOEND
0,
0,
0, //97
#END