Files
TJA-by-song-no/tja/1424.tja
2026-03-04 23:59:27 +09:00

608 lines
6.0 KiB
Plaintext
Raw Permalink Blame History

This file contains ambiguous Unicode characters
This file contains Unicode characters that might be confused with other characters. If you think that this is intentional, you can safely ignore this warning. Use the Escape button to reveal them.
//TJADB Project
TITLE:Teratera
TITLEJA:てらてら
SUBTITLE:--Leo/need × Hatsune Miku / Project Sekai: Colorful Stage feat. Hatsune Miku
SUBTITLEJA:Leo/need × 初音ミク 「プロジェクトセカイ カラフルステージ! feat. 初音ミク」
BPM:190
WAVE:Teratera.ogg
OFFSET:-1.272
DEMOSTART:52.588
COURSE:Oni
LEVEL:9
BALLOON:
SCOREINIT:1340
SCOREDIFF:0
#START
10211121,
01211020,
10211121,
01211020,
10211121,
0010201010102011,
1000202210002011,
1010102210002011,
1000100210100010,
0011201022201022,
1000100120100010,
0011201010201222,
1000100210100010,
0011201022201022,
1000100120100030,
03043012, //16
1011102010102010,
01020112,
10121011,
02102020,
1112104010100020,
0020101010001022,
2020001022100010,
000000100000200000100000500000000008000000200000,
1000102011102010,
0020002000102022,
10121021,
0020002010222020,
1020202010100012,
12122102,
00121010,
1002101000222022, //32
12323020,
10210121,
00101022,
1010201000200011,
1010101110101011,
2010101220101022,
1010121110202011,
2220101030401111,
2030203000112010, //41
#GOGOSTART
1000201211202010,
01012020,
1000121110101020,
0020002020001022,
1000201110102010,
0010002210102020,
500000000008000000200000500000000008000000200000,
500000000008000000200000300000100100100100100100,
2011221110202010,
01012010,
3000121110202010,
01034040,
1110212210202010,
0010001110202020,
500000000008000000200200500000000008000000200200,
500000000008000000200000300000000000200000000000,
#GOGOEND
#MEASURE 2/4
10001111, //58
#MEASURE 4/4
1022102210221010,
2010001000112010,
01121121,
0010001040002222,
1000100030002022,
1000102000221110,
00404014,
0040004030111022,
10103012,
2010001222101040,
01404014,
0040003040221010,
1022102210201020,
21032323,
0000100010221010,
0022101000102011, //74
1010101110101011,
2010101220101020,
2211102211202010,
1122201122101022,
1122103000222000,
#MEASURE 2/4
0,
#MEASURE 4/4
10220020,
00220020,
10220020,
00220020,
10220020,
10220020,
10221020,
1010303030002211, //88
#GOGOSTART
1011122210102010,
0010001020001011,
2000122210202010,
01012040,
1110212210202030,
0030003030202022,
1010101110102011,
2010202210102212,
#GOGOEND
#MEASURE 2/4
10001022,
#MEASURE 4/4
1000100211102010,
0011201022201020,
1000100212201010,
0022101010202222,
1000100211102010,
0011201022201020,
1000100212202030,
03043000,
0, //106
#END
COURSE:Hard
LEVEL:6
BALLOON:13
SCOREINIT:2160
SCOREDIFF:0
#START
10101001,
01012000,
20201001,
01012000,
10101102,
02022020,
10012002,
1000001020000011,
10101101,
01012020,
10101101,
02201120,
10101101,
01202210,
10101201,
01021000, //16
11121021,
01010110,
10121011,
02102020,
1011100010100020,
02111020,
11011105,
000000000000000000000008000000000000000000000000,
10121111,
02020122,
10111021,
02021020,
12221101,
12112102,
0222,
20220200, //32
3330,
20020202,
0111,
20020201,
10011001,
10012001,
10110201,
12110110,
22230111, //41
#GOGOSTART
1000101110101020,
02012020,
1000101110102010,
01012002,
1000101110101020,
01011122,
500000000000000000000008000000000000200000000000,
500000000000000000000008000000000000000000100000,
1000101110101020,
02012020,
1000101110102010,
01012040,
10221121,
01011222,
500000000000000000000008000000000000200000000000,
500000000000000000000008000000000000200000000000,
#GOGOEND
#MEASURE 2/4
1, //58
#MEASURE 4/4
12211220,
21010121,
01101101,
01014020,
30303021,
10120201,
00202002,
02021111,
40404012,
21020203,
00202002,
02021112,
10101222,
11030307,
0,
80000001, //74
10011001,
10012001,
10110201,
12110110,
22230000,
#MEASURE 2/4
0,
#MEASURE 4/4
1,
0001,
1,
0002,
1,
0,
11,
11112000, //80
#GOGOSTART
1000101110101020,
02012010,
2000100010111010,
01012040,
30303333,
03033020,
1000101110002022,
2000101110002000,
#GOGOEND
#MEASURE 2/4
1012,
#MEASURE 4/4
10101101,
0011100020000000,
10101101,
0022200010000000,
10101101,
0011100020000000,
10102103,
03043000,
0, //106
#END
COURSE:Normal
LEVEL:5
BALLOON:8,11
SCOREINIT:3890
SCOREDIFF:0
#START
10000002,
02,
20000002,
02,
20000002,
02,
11,
10011000,
30001001,
01,
10001001,
02,
10001001,
01,
10001001,
00011000, //16
10000001,
00010000,
10000001,
02,
10101001,
01,
11001105,
000000000000000000000008000000000000000000000000,
10000001,
00010000,
10000001,
02,
11,
10101002,
0111,
500000000000000000000008000000000000000000000000, //32
1110,
1,
0110,
10000001,
10011001,
10022001,
10110201,
10110000,
11040000, //41
#GOGOSTART
10101001,
01011000,
10101001,
01011000,
10101101,
01011010,
5,
000000000000000000000008000000000000000000000000,
10101001,
01011000,
10101001,
01022000,
10101101,
01011010,
5,
000000000000000000000008000000000000000000000000,
#GOGOEND
#MEASURE 2/4
1, //58
#MEASURE 4/4
1111,
11020001,
00101001,
01004000,
1110,
10020202,
00101002,
02022000,
1110,
10020202,
00101002,
02022000,
1110,
10010107,
0,
80000001, //74
10011001,
10022001,
10110201,
10110000,
11040000,
#MEASURE 2/4
0,
#MEASURE 4/4
1,
0001,
1,
0001,
1,
0001,
11,
12, //88
#GOGOSTART
10201001,
01011000,
10201001,
01022000,
30303003,
03033020,
10011001,
10022020,
#GOGOEND
#MEASURE 2/4
1,
#MEASURE 4/4
30001101,
01,
10001101,
02,
10001101,
01,
9,
09008000,
0, //106
#END
COURSE:Easy
LEVEL:3
BALLOON:6,10
SCOREINIT:10920
SCOREDIFF:0
#START
1,
0,
1,
0,
1,
0,
11,
1,
30000001,
0,
10000001,
01,
10000001,
0,
10000002,
0, //16
1,
0,
1,
0,
11,
1,
500000000000000000000000000000000000000000000008,
0,
1,
0,
1,
0,
11,
1,
500000000000000000000000000000000000000000000008,
0, //32
1,
0,
1,
0,
1,
1,
3,
3,
3, //41
#GOGOSTART
10000001,
01,
10000001,
01,
500000000000000000000000000000000000000000000008,
0,
500000000000000000000000000000000000000000000008,
0,
10000001,
01,
10000001,
01,
500000000000000000000000000000000000000000000008,
0,
500000000000000000000000000000000000000000000008,
0,
#GOGOEND
#MEASURE 2/4
1, //58
#MEASURE 4/4
1,
10000001,
00000002,
0,
11,
10000001,
00000002,
0,
11,
10000001,
00000002,
0,
1,
10000007,
0,
8, //74
11,
11,
3,
3,
3,
#MEASURE 2/4
0,
#MEASURE 4/4
1,
0,
1,
0,
1,
0,
1,
2, //88
#GOGOSTART
10000001,
01,
10000001,
01,
3,
3,
3,
3,
#GOGOEND
#MEASURE 2/4
1,
#MEASURE 4/4
30000001,
0,
10000001,
01,
10000001,
0,
9,
09008000,
0, //106
#END