692 lines
7.8 KiB
Plaintext
692 lines
7.8 KiB
Plaintext
//TJADB Project
|
||
TITLE:Dragon of Spring ~Haryu~
|
||
TITLEJA:春竜 ~Haryu~
|
||
SUBTITLE:--Azu♪
|
||
SUBTITLEJA:Azu♪
|
||
BPM:218
|
||
WAVE:Dragon of Spring Haryu.ogg
|
||
OFFSET:-2.368
|
||
DEMOSTART:24.925
|
||
|
||
COURSE:Edit
|
||
LEVEL:9
|
||
BALLOON:5
|
||
SCOREINIT:410
|
||
SCOREDIFF:90
|
||
|
||
|
||
#START
|
||
|
||
|
||
#SCROLL 0.5
|
||
#MEASURE 2/4
|
||
7,
|
||
#MEASURE 4/4
|
||
8,
|
||
#BPMCHANGE 219.39
|
||
,
|
||
#MEASURE 8/4
|
||
#BPMCHANGE 218
|
||
2112112112112122,
|
||
2112112112112211,
|
||
2112112112112122,
|
||
2112112112112121,
|
||
#MEASURE 4/4
|
||
500000000000000000000000000000000008000000000000,
|
||
#SCROLL 1
|
||
1010101011111111,
|
||
10200120,
|
||
1011201000202010,
|
||
10200120,
|
||
1011201000202010,
|
||
2011102011102011,
|
||
1020111020102010,
|
||
1011201000102000,
|
||
1022102020102010,
|
||
10200120,
|
||
1020201022111000,
|
||
10200120,
|
||
1020201022111000,
|
||
10200120,
|
||
100100200100202020100000,
|
||
111211111222,
|
||
222111111211,
|
||
111211111211,
|
||
111211111222,
|
||
111211111211,
|
||
111211111222,
|
||
111222111222,
|
||
111222111222,
|
||
111211111211,
|
||
111211111222,
|
||
#MEASURE 3/4
|
||
211211,
|
||
212121,
|
||
211211,
|
||
#MEASURE 2/4
|
||
2121,
|
||
#MEASURE 3/4
|
||
211211,
|
||
212121,
|
||
211211,
|
||
#MEASURE 2/4
|
||
2121,
|
||
#MEASURE 3/4
|
||
201110201110,
|
||
201120112010,
|
||
201110201110,
|
||
#MEASURE 2/4
|
||
20112022,
|
||
#MEASURE 3/4
|
||
201110201110,
|
||
201120112010,
|
||
#MEASURE 4/4
|
||
20112011,
|
||
2000101011111111,
|
||
#MEASURE 7/4
|
||
2,
|
||
#MEASURE 6/4
|
||
#SCROLL 0.5
|
||
102020101222,
|
||
102020101222,
|
||
102020101222,
|
||
100020002000100022201000,
|
||
102020101222,
|
||
100020002000100022221000,
|
||
102020221120,
|
||
102220102220,
|
||
102210112210,
|
||
102210112212,
|
||
102210112212,
|
||
102210101020,
|
||
102210102210,
|
||
102210102010,
|
||
#MEASURE 8/4
|
||
30003000300000002000102000111010,
|
||
20001020001110101020101010101010,
|
||
11,
|
||
10000000100000001000100010111011,
|
||
#MEASURE 4/4
|
||
#SCROLL 1
|
||
10200120,
|
||
1011201000201120,
|
||
10200120,
|
||
1011201000201120,
|
||
10200122,
|
||
21010200,
|
||
221221221221,
|
||
221221221221,
|
||
10200120,
|
||
1011201000201120,
|
||
10200120,
|
||
1011201000201120,
|
||
10200122,
|
||
21010200,
|
||
221221221221,
|
||
122122122122,//82
|
||
|
||
#GOGOSTART
|
||
111111211111,
|
||
111111211111,
|
||
122122111200,
|
||
122122111200,
|
||
11212121,
|
||
11212121,
|
||
211211211211,
|
||
111222222121,
|
||
0010100010100011,
|
||
11101101,
|
||
0010100010100011,
|
||
11101101,
|
||
211211211211,
|
||
211211211211,
|
||
211211211211,
|
||
211211211211,
|
||
24,
|
||
4400,//100
|
||
|
||
#GOGOEND
|
||
|
||
|
||
#END
|
||
|
||
|
||
COURSE:Oni
|
||
LEVEL:8
|
||
BALLOON:5,8,4
|
||
SCOREINIT:470
|
||
SCOREDIFF:100
|
||
|
||
|
||
#START
|
||
|
||
|
||
#SCROLL 0.5
|
||
#MEASURE 2/4
|
||
7,
|
||
#MEASURE 4/4
|
||
8,
|
||
#BPMCHANGE 219.39
|
||
,
|
||
#MEASURE 8/4
|
||
#BPMCHANGE 218
|
||
3003002021022110,
|
||
3003002021022110,
|
||
3003002021022110,
|
||
3003003003003030,
|
||
#MEASURE 4/4
|
||
600000000000000000000000000000000008000000000000,
|
||
#SCROLL 1
|
||
1010101010222010,
|
||
10201120,
|
||
1000202010222010,
|
||
10201120,
|
||
1000202010222010,
|
||
10210120,
|
||
2010001020222000,
|
||
11220200,
|
||
7008,
|
||
10221022,
|
||
1000202010222010,
|
||
10221022,
|
||
1000202010222020,
|
||
10221022,
|
||
1000202010222010,
|
||
10221022,
|
||
1000202010222020,
|
||
111201111201,
|
||
111202111201,
|
||
111201111201,
|
||
111202111201,
|
||
111201111201,
|
||
111202111201,
|
||
111201111201,
|
||
111222211122,
|
||
#MEASURE 3/4
|
||
201101,
|
||
102121,
|
||
101101,
|
||
#MEASURE 2/4
|
||
1021,
|
||
#MEASURE 3/4
|
||
201101,
|
||
102121,
|
||
101101,
|
||
#MEASURE 2/4
|
||
1021,
|
||
#MEASURE 3/4
|
||
201201,
|
||
212120,
|
||
201201,
|
||
#MEASURE 2/4
|
||
2021,
|
||
#MEASURE 3/4
|
||
201201,
|
||
212120,
|
||
#MEASURE 4/4
|
||
21112111,
|
||
21112111,
|
||
#MEASURE 7/4
|
||
2,
|
||
#MEASURE 6/4
|
||
#SCROLL 0.5
|
||
101120101120,
|
||
101120210120,
|
||
101120101120,
|
||
102210102210,
|
||
101120101120,
|
||
101120210120,
|
||
101120101120,
|
||
102210102210,
|
||
102101102101,
|
||
102101210210,
|
||
102101102101,
|
||
101202120210,
|
||
102101102101,
|
||
102101210210,
|
||
#MEASURE 8/4
|
||
3030300020220020,
|
||
2022002022022220,
|
||
1011202010102020,
|
||
1011202010102020,
|
||
#MEASURE 4/4
|
||
#SCROLL 1
|
||
10221020,
|
||
1000202010222020,
|
||
10221020,
|
||
1000202010222020,
|
||
1000202010222010,
|
||
10210120,
|
||
211102111102,
|
||
111102111211,
|
||
10221020,
|
||
1000202010222020,
|
||
10221020,
|
||
1000202010222020,
|
||
1000202010222010,
|
||
10210120,
|
||
211102111102,
|
||
111211700080,//82
|
||
|
||
#GOGOSTART
|
||
100100111200,
|
||
100100111200,
|
||
111222211100,
|
||
111222211100,
|
||
11221122,
|
||
11221122,
|
||
111111222222,
|
||
111222111222,
|
||
01102201,
|
||
12201122,
|
||
01102201,
|
||
12201122,
|
||
111202111201,
|
||
111202111201,
|
||
111202111201,
|
||
111202111200,
|
||
44,
|
||
4400,//100
|
||
|
||
#GOGOEND
|
||
,
|
||
,
|
||
#END
|
||
|
||
COURSE:Hard
|
||
LEVEL:7
|
||
BALLOON:4,9,7
|
||
SCOREINIT:450
|
||
SCOREDIFF:120
|
||
|
||
#START
|
||
#SCROLL 0.5
|
||
#MEASURE 10/4
|
||
7008000000,
|
||
#MEASURE 8/4
|
||
3003000000000000,
|
||
3003000000000000,
|
||
3003000000000000,
|
||
3003003003003030,
|
||
#MEASURE 4/4
|
||
7008,
|
||
#SCROLL 1
|
||
0,
|
||
10201120,
|
||
10221020,
|
||
10201120,
|
||
10221020,
|
||
10110110,
|
||
11011010,
|
||
10220200,
|
||
7008,
|
||
11201120,
|
||
10221020,
|
||
11201120,
|
||
11221020,
|
||
11201120,
|
||
10221020,
|
||
11201120,
|
||
11221020,
|
||
111100100100,
|
||
111100200200,
|
||
111100100100,
|
||
111100200200,
|
||
111100100100,
|
||
111100200200,
|
||
111100100100,
|
||
111100200200,
|
||
#MEASURE 3/4
|
||
31,
|
||
111,
|
||
31,
|
||
#MEASURE 2/4
|
||
11,
|
||
#MEASURE 3/4
|
||
31,
|
||
111,
|
||
31,
|
||
#MEASURE 2/4
|
||
11,
|
||
#MEASURE 3/4
|
||
42,
|
||
222,
|
||
42,
|
||
#MEASURE 2/4
|
||
22,
|
||
#MEASURE 3/4
|
||
42,
|
||
222,
|
||
#MEASURE 4/4
|
||
40114011,
|
||
40114011,
|
||
#MEASURE 7/4
|
||
4,
|
||
#MEASURE 6/4
|
||
#SCROLL 0.5
|
||
122122,
|
||
102020102220,
|
||
122122,
|
||
102220102220,
|
||
122122,
|
||
102020102220,
|
||
102020102220,
|
||
102220102220,
|
||
101110222220,
|
||
101110222220,
|
||
101110222220,
|
||
101110102020,
|
||
101110102220,
|
||
101110102020,
|
||
#MEASURE 8/4
|
||
3030300010010000,
|
||
100000000100000000000000500000000000008000000000,
|
||
1011101010100000,
|
||
1011101010100000,
|
||
#MEASURE 4/4
|
||
#SCROLL 1
|
||
10221020,
|
||
10201120,
|
||
10221020,
|
||
10201120,
|
||
10201122,
|
||
10210120,
|
||
111100100100,
|
||
111100200200,
|
||
10221020,
|
||
10201120,
|
||
10221020,
|
||
10201120,
|
||
10201122,
|
||
10210120,
|
||
111100100100,
|
||
111100200200,//82
|
||
|
||
#GOGOSTART
|
||
3344,
|
||
3344,
|
||
111100200200,
|
||
111100200200,
|
||
11112222,
|
||
11112222,
|
||
11221122,
|
||
111100111100,
|
||
01101101,
|
||
11101101,
|
||
01101101,
|
||
11101101,
|
||
100100111100,
|
||
100100111100,
|
||
111100222200,
|
||
111100222200,
|
||
44,
|
||
4400,//100
|
||
|
||
#GOGOEND
|
||
,//502combo
|
||
,
|
||
#END
|
||
|
||
COURSE:Normal
|
||
LEVEL:5
|
||
BALLOON:3,8,4,4,4,4,4,8
|
||
|
||
#START
|
||
#SCROLL 0.5
|
||
#MEASURE 10/4
|
||
7008000000,
|
||
#MEASURE 8/4
|
||
3003000000000000,
|
||
3003000000000000,
|
||
3003000000000000,
|
||
3003003003003030,
|
||
#MEASURE 4/4
|
||
7008,
|
||
#SCROLL 0.75
|
||
0,
|
||
11,
|
||
20111010,
|
||
11,//10
|
||
20111010,
|
||
10010010,
|
||
01001010,
|
||
10020200,
|
||
7008,
|
||
11,
|
||
20111020,
|
||
11,
|
||
20111020,
|
||
11,
|
||
20111020,
|
||
11,
|
||
20111020,
|
||
1111,
|
||
500000000000000000000000000008000000000000000000,
|
||
1111,
|
||
500000000000000000000000000008000000000000000000,
|
||
1111,
|
||
500000000000000000000000000008000000000000000000,
|
||
1111,
|
||
500000000000000000000000000008000000000000000000,
|
||
#MEASURE 3/4
|
||
31,
|
||
1,
|
||
31,
|
||
#MEASURE 2/4
|
||
1,
|
||
#MEASURE 3/4
|
||
31,
|
||
1,
|
||
31,
|
||
#MEASURE 2/4
|
||
1,
|
||
#MEASURE 3/4
|
||
42,
|
||
2,
|
||
42,
|
||
#MEASURE 2/4
|
||
2,
|
||
#MEASURE 3/4
|
||
42,
|
||
2,
|
||
#MEASURE 4/4
|
||
44,
|
||
44,
|
||
#MEASURE 7/4
|
||
4,
|
||
#MEASURE 6/4
|
||
#SCROLL 0.5
|
||
101101,
|
||
101102,
|
||
101101,
|
||
101102,
|
||
102201,
|
||
102202,
|
||
102201,
|
||
102202,
|
||
101102,
|
||
101102,
|
||
101102,
|
||
101102,
|
||
101102,
|
||
101102,
|
||
#MEASURE 8/4
|
||
33300000,
|
||
0,
|
||
10101100,
|
||
10101100,
|
||
#MEASURE 4/4
|
||
#SCROLL 0.75
|
||
10111010,
|
||
2200,
|
||
10111010,
|
||
2200,
|
||
1212,
|
||
22020200,
|
||
5,
|
||
000000000000000000000000000008000000000000000000,
|
||
10111010,
|
||
2200,
|
||
10111010,
|
||
2200,
|
||
1212,
|
||
12020200,
|
||
5,
|
||
000000000000000000000000000008000000000000000000,//82
|
||
|
||
#GOGOSTART
|
||
3344,
|
||
3344,
|
||
7008,
|
||
7008,
|
||
11101110,
|
||
22202220,
|
||
5,
|
||
000000000000000000000000000008000000000000000000,//90
|
||
11101010,
|
||
11102020,
|
||
11101010,
|
||
11102020,
|
||
7008,
|
||
7008,
|
||
9,
|
||
00900080,
|
||
33,
|
||
3300,//100
|
||
|
||
#GOGOEND
|
||
,//260combo
|
||
,
|
||
#END
|
||
|
||
COURSE:Easy
|
||
LEVEL:4
|
||
BALLOON:2,5,3,3,3,3,3,5
|
||
|
||
#START
|
||
#SCROLL 0.5
|
||
#MEASURE 10/4
|
||
7008000000,
|
||
#MEASURE 8/4
|
||
3003000000000000,
|
||
3003000000000000,
|
||
3003000000000000,
|
||
600000000000000000000000000008000000000000000000,
|
||
#MEASURE 4/4
|
||
7008,
|
||
#SCROLL 0.75
|
||
0,
|
||
11,
|
||
2,
|
||
11,
|
||
2,
|
||
11,
|
||
1110,
|
||
1110,
|
||
7008,
|
||
11,
|
||
2,
|
||
11,
|
||
2,
|
||
11,
|
||
22,
|
||
11,
|
||
22,
|
||
1110,
|
||
500000000000000000000000000008000000000000000000,
|
||
1110,
|
||
500000000000000000000000000008000000000000000000,
|
||
1110,
|
||
500000000000000000000000000008000000000000000000,
|
||
1110,
|
||
500000000000000000000000000008000000000000000000,
|
||
#MEASURE 3/4
|
||
3,
|
||
1,
|
||
3,
|
||
#MEASURE 2/4
|
||
1,
|
||
#MEASURE 3/4
|
||
3,
|
||
1,
|
||
3,
|
||
#MEASURE 2/4
|
||
1,
|
||
#MEASURE 3/4
|
||
4,
|
||
2,
|
||
4,
|
||
#MEASURE 2/4
|
||
2,
|
||
#MEASURE 3/4
|
||
4,
|
||
2,
|
||
#MEASURE 4/4
|
||
44,
|
||
44,
|
||
#MEASURE 7/4
|
||
4,
|
||
#MEASURE 6/4
|
||
#SCROLL 0.5
|
||
101100,
|
||
201100,
|
||
101100,
|
||
500000000000000000000000000000000008000000000000000000000000000000000000,
|
||
101100,
|
||
201100,
|
||
101100,
|
||
500000000000000000000000000000000008000000000000000000000000000000000000,
|
||
101100,
|
||
201100,
|
||
101100,
|
||
201100,
|
||
101100,
|
||
201100,
|
||
#MEASURE 8/4
|
||
33300000,
|
||
0,
|
||
1110,
|
||
1110,
|
||
#MEASURE 4/4
|
||
#SCROLL 0.75
|
||
1110,
|
||
2200,
|
||
1110,
|
||
2200,
|
||
11,
|
||
2220,
|
||
5,
|
||
000000000000000000000000000008000000000000000000,
|
||
1110,
|
||
2200,
|
||
1110,
|
||
2200,
|
||
11,
|
||
2220,
|
||
5,
|
||
000000000000000000000000000008000000000000000000,//82
|
||
|
||
#GOGOSTART
|
||
3330,
|
||
3330,
|
||
7008,
|
||
7008,
|
||
1120,
|
||
1120,
|
||
5,
|
||
000000000000000000000000000008000000000000000000,
|
||
1110,
|
||
1120,
|
||
1110,
|
||
1120,
|
||
7008,
|
||
7008,
|
||
9,
|
||
00000800,
|
||
33,
|
||
3300,//100
|
||
|
||
#GOGOEND
|
||
,//168combo
|
||
,
|
||
#END |