Files
TJA-by-song-no/tja/199.tja
2026-03-04 23:59:27 +09:00

425 lines
6.0 KiB
Plaintext

//TJADB Project
TITLE:Onegai! Cinderella
TITLEJA:お願い!シンデレラ
SUBTITLE:--Tetsuya Uchida feat. Ayaka Ohashi/THE iDOLM@STER Cinderella Girls
SUBTITLEJA:「アイドルマスター シンデレラガールズ」より
BPM:175
WAVE:Onegai! Cinderella.ogg
OFFSET:-1.767
DEMOSTART:56.617
COURSE:Oni
LEVEL:7
SCOREINIT:580
SCOREDIFF:155
#START
20222002,
00222000,
22220222,
02202002,
22220222,
00000022,
2022101000222030,
03333000,//8
#GOGOSTART
6,
000000000008000000000000000000000000000000000000,
0303,
0303,
0303,
0303,
0303,
0344,//16
#GOGOEND
10211201,
01201120,
10210121,
01213030,
10211201,
01211020,
10211021,
10214040,
10211201,
01212020,
11211201,
000000100000200000100000600000000000000008000000,
10211201,
01204040,
33,
1110111011101110,
500000000000000000000008000000000000400000000000,
500000000000000000000008000000000000400000000000,
500000000000000000000008000000000000400000000000,
500000000000000000000008000000100100200000100000,
0011201000112010,
0011201120002000,
600000000000000000000000000008000000000000300000,
03333000,//40
#GOGOSTART
1011101110202010,
0010201110202000,
1022201000102010,
0010200010202011,
1011101110202010,
0011201110112000,
11401140,
34343434,
1011101110202010,
0010201110202000,
1022201000102010,
01201021,
1110201000102050,
000000000000000000000008000000000000100000200000,
1120201000102050,
000000000000000008000000400000000000400000000000,//56
#GOGOEND
6,
000000000008000000000000000000000000000000000000,
0404,
0404,
3434,
30404343,
00400043,
0033,
20222002,
00222000,
22220222,
02202002,
20222004,
0343,
34403440,
34343434,//72
#GOGOSTART
2011201020112010,
2011201020112010,
2011201020112020,
34343434,
1022201000222050,
000000000000000000000008000000000000300000000000,
1011201000303000,
1011201000303000,
1011201000003000,
40000043,
03333043,//83
#GOGOEND
#END
COURSE:Hard
LEVEL:4
SCOREINIT:360
SCOREDIFF:110
#START
20222002,
00222000,
22220222,
02202002,
22220222,
00000022,
22110223,
03333000,//8
#GOGOSTART
6,
000000000008000000000000000000000000000000000000,
0303,
0303,
0303,
0303,
0303,
0344,//16
#GOGOEND
10211011,
01102020,
10110112,
02113030,
10211011,
01112020,
10211021,
10114040,
10211011,
01112020,
10211012,
000000200000100000100000600000000000000008000000,
10211011,
01104040,
33,
3333,
500000000000000000000008000000000000400000000000,
500000000000000000000008000000000000400000000000,
500000000000000000000008000000000000400000000000,
500000000000000000000008000000300000400000300000,
03430343,
03434040,
600000000000000000000000000008000000000000300000,
03333000,//40
#GOGOSTART
11211021,
01212020,
11210121,
01101000,
11211021,
01201120,
11401140,
34343434,
11211021,
01212020,
11210121,
01101000,
11210115,
000000000000000000000008000000000000000000000000,
12210115,
000000000000000008000000400000000000400000000000,//56
#GOGOEND
6,
000000000008000000000000000000000000000000000000,
0404,
0404,
0404,
0404,
0404,
,
20222002,
00222000,
22220222,
02202002,
20222004,
0343,
34403440,
34343434,//72
#GOGOSTART
12121441,
12121440,
11210121,
34343434,
11210125,
000000000000000000000008000000000000300000000000,
11210330,
11210330,
11210030,
40000046,
000000000000000000000008000000000000400000300000,//83
#GOGOEND
,
,
#END
COURSE:Normal
LEVEL:4
BALLOON:6,6,6,6
#START
20000002,
,
20000002,
,
20020005,
000000000000000000000008000000000000000000000000,
10010005,
000000000000000000000008000000000000000000000000,//8
#GOGOSTART
6,
000000000008000000000000000000000000000000000000,
0303,
0303,
0303,
0303,
0303,
0344,//16
#GOGOEND
0202,
0222,
0202,
0233,
0202,
0222,
0202,
0244,
0202,
0222,
0202,
000000000000200000000000600000000000000008000000,
0202,
0244,
33,
3333,
500000000000000000000008000000000000400000000000,
500000000000000000000008000000000000400000000000,
500000000000000000000008000000000000400000000000,
500000000000000000000008000000000000400000000000,
0404,
0404,
600000000000000000000000000008000000000000300000,
03333000,//40
#GOGOSTART
00000330,
00000330,
,
34343434,
00000330,
00000330,
0404,
34343434,
00000330,
00000330,
,
34343434,
00000005,
000000000000000000000008000000000000000000000000,
00000005,
00084040,//56
#GOGOEND
6,
000000000008000000000000000000000000000000000000,
0404,
0404,
0404,
0404,
0404,
,
7008,
7008,
7008,
7008,
0300,
0303,
0404,
34343434,//72
#GOGOSTART
00000330,
00000330,
,
34343434,
00000005,
000000000000000000000008000000000000000000000000,
00000330,
00000330,
0003,
40000006,
000000000000000000000000000008000000000000300000,
,
#END
COURSE:Easy
LEVEL:3
BALLOON:5,5,5,5
#START
20000002,
,
20000002,
,
20020005,
000000000000000000000008000000000000000000000000,
10010005,
000000000000000000000008000000000000000000000000,//8
#GOGOSTART
6,
000000000008000000000000000000000000000000000000,
0303,
0303,
0303,
0303,
0303,
0303,//16
#GOGOEND
0202,
0202,
0202,
0233,
0202,
0202,
0202,
0244,
0202,
0202,
0202,
000000000000200000000000600000000000000008000000,
0202,
0244,
33,
3333,
500000000000000000000008000000000000400000000000,
500000000000000000000008000000000000400000000000,
500000000000000000000008000000000000400000000000,
500000000000000000000008000000000000400000000000,
0404,
0404,
600000000000000000000000000008000000000000300000,
03333000,//40
#GOGOSTART
00000330,
00000330,
,
3333,
00000330,
00000330,
0404,
3333,
00000330,
00000330,
,
3333,
00000005,
000000000000000000000008000000000000000000000000,
00000005,
000000000000000008000000400000000000400000000000,//56
#GOGOEND
6,
000000000008000000000000000000000000000000000000,
0404,
0404,
0404,
0404,
0404,
,
7008,
7008,
7008,
7008,
0300,
0303,
0404,
3333,//72
#GOGOSTART
00000330,
00000330,
,
3333,
00000005,
000000000000000000000008000000000000000000000000,
00000330,
00000330,
0003,
40000006,
000000000000000000000000000008000000000000300000,
,
#END