Files
TJA-by-song-no/tja/20.tja
2026-03-04 23:59:27 +09:00

475 lines
6.8 KiB
Plaintext
Raw Permalink Blame History

This file contains ambiguous Unicode characters
This file contains Unicode characters that might be confused with other characters. If you think that this is intentional, you can safely ignore this warning. Use the Escape button to reveal them.
//TJADB Project
TITLE:IN THE ZONE
TITLEJA:IN THE ZONE
SUBTITLE:--Go Shiina feat. Jonathan Underdown/ACE COMBAT X² JOINT ASSAULT
SUBTITLEJA:「ACE COMBAT X2 JOINT ASSAULT」より
BPM:169.7
WAVE:IN THE ZONE.ogg
OFFSET:-4.252
DEMOSTART:51.714
COURSE:Oni
LEVEL:9
BALLOON:10
SCOREINIT:410
SCOREDIFF:100
#START
,
#BPMCHANGE 173.88
2222,
#BPMCHANGE 172
2222,
2222,
#BPMCHANGE 171.33
2222,
#BPMCHANGE 172
10000111,
10001011,
10000111,
10110111,
10000111,
11,
1111,
#BPMCHANGE 173.11
4000400040112000,
#BPMCHANGE 172
1110201110201110,
1110201110201110,
1110201110201110,
1111201111201120,
1110201110201110,
1110201110201110,
1110201110201110,
500000000000000008000000400000100000400000000000,
11210121,
11020210,
1001002010210020,
1021002010210020,
11210120,
11210140,
10201404,
1000200011101110,
3001001020000000,
14130130,
1001001020002000,
2210302000404000,
2211221122112211,
#GOGOSTART
1020112010210120,
1020112010201120,
1020112010210120,
1111201111201120,
1020112010210120,
1020112010201120,
1020112010210120,
3011201110402211,
1111201111201120,
1111201111201120,
1111201111201120,
1111201111201120,
10112111,
1000001120001000,
1000101020101111,
10013040,
1122112211200020,
2111201111201120,
2111201111201120,
70000800,
1111201111201120,
1111201022112211,
200200100100500000000000000000000000000008000000,
1020112012211221,
2111202111201120,
2111112011112011,
2111202111201120,
200100100100100100200000200100100100500008000000,
2211221122112211,
2221222122212221,
202020200100202020200100202020200100202020200100,
200100200100200100200100500000000000000008000000,
#GOGOEND
300000000000200200100100200010001000200010001000,
12,
221100304040,
30002120,
1011101010101011,
1010101110222111,
1002001001012020,
1001201220202111,
#GOGOSTART
1020112010210120,
1020112010201120,
1020112010210120,
1111201111201110,
2111202111202120,
2111202111202120,
2111202111202120,
2111212111212120,
#GOGOEND
#BPMCHANGE 171.55
3003004021004001,
#BPMCHANGE 170.87
1001200110401010,
#BPMCHANGE 177
3030404021121120,
03,
#END
COURSE:Hard
LEVEL:8
BALLOON:20,10
SCOREINIT:510
SCOREDIFF:128
#START
,
#BPMCHANGE 173.88
2222,
#BPMCHANGE 172
2222,
2222,
#BPMCHANGE 171.33
2222,
#BPMCHANGE 172
10000111,
10001011,
10000111,
10110111,
10000111,
11,
1111,
#BPMCHANGE 173.11
2223,
#BPMCHANGE 172
1110100011100000,
1110100011100000,
1110100011100000,
1111100011111000,
1110100011100000,
1110100011100000,
1110101110101000,
500000000000000008000000000000000000000000000000,
11210121,
11020230,
1001001020020020,
1001001020020020,
11210120,
11210140,
500000000000000008000000500000000000000008000000,
500000000000000000000000000000000008000000000000,
3001001020000000,
34330330,
1001001020002000,
1110200020004000,
,//34
#GOGOSTART
1110101110101000,
1110101110101000,
1110101110101000,
1111100011111000,
1110101110102000,
1110101110102000,
1110101110102050,
000000000000000000000000000008000000000000000000,
1110101110101000,
1110101110101000,
1110101110101000,
1111100011111000,
10112011,
1000001120001000,
1000101020001110,
10013040,
7,
,
00000800,
1110101110101000,
500000000000000000000000000000000000000008000000,
600000000000000008000000200200200000200200200000,
100100100000500000000000000000000008000000000000,
1110222011102000,
34,
34,
7,
00000800,
1110111011101110,
2220222022202220,
1110222011102220,
100100200000100100200000500000000000000008000000,//66
#GOGOEND
300000111111,
12,
221100304040,
30002120,
1011101010101011,
1010101110101011,
11111110,
500000000000000000000008000000000000000000000000,//74
#GOGOSTART
1110101110102010,
1110101110102000,
1110101110102010,
1111100011111000,
1110201110102010,
1110201110102000,
1110201110102010,
1110201110102000,//82
#BPMCHANGE 171.55
#GOGOEND
3003004004006000,
#BPMCHANGE 170.87
000000000000000000000000000000000000000008000000,
#BPMCHANGE 177
33443343,
03,
,
,
,
#END
COURSE:Normal
LEVEL:6
BALLOON:16,5,6,7,7
SCOREINIT:770,3650
SCOREDIFF:215
#START
,
#BPMCHANGE 173.88
,
#BPMCHANGE 172
,
,
#BPMCHANGE 171.33
,
#BPMCHANGE 172
1001,
1001,
1011,
1,
1001,
11,
1111,
#BPMCHANGE 173.11
1,
#BPMCHANGE 172
1111,
10101100,
1111,
10101100,
1111,
10101100,
1111,
500000000000000000000000000008000000000000000000,
10110220,
10110000,
30033003,
30033000,
10110220,
10110000,
44,
44,
10011000,
10033000,
10011000,
3333,
3,//34
#GOGOSTART
11101110,
1111,
11101110,
500000000000000000000000000008000000000000000000,
11101110,
11101110,
10001110,
500000000000000000000000000008000000000000000000,
11101110,
1111,
11101110,
500000000000000000000000000008000000000000000000,
10012000,
10012000,
10012000,
1,
7,
,
8,
,
11101110,
11101110,
1212,
500000000000000000000000000008000000000000000000,
12,
34,
500000000000000000000000000008000000000000000000,
600000000000000000000000000008000000000000000000,
70000800,
70000800,
70000800,
70000800,//66
#GOGOEND
3,
3,
300333,
3,
11111110,
11111110,
11111110,
3,//74
#GOGOSTART
11101110,
10101110,
10001110,
500000000000000000000000000008000000000000000000,
100000000000000000000000500000000000000000000008,
00001110,
100000000000000000000000500000000000000000000000,
000000000008000000000000000000300000300000000000,//82
#BPMCHANGE 171.55
#GOGOEND
6,
#BPMCHANGE 170.87
000000000000000000000000000008000000000000000000,
#BPMCHANGE 177
33303033,
03,
,
,
,
#END
COURSE:Easy
LEVEL:4
BALLOON:16,5,6,7,7
SCOREINIT:580,5000
SCOREDIFF:160
#START
,
#BPMCHANGE 173.88
,
#BPMCHANGE 172
,
,
#BPMCHANGE 171.33
,
#BPMCHANGE 172
1001,
1001,
1011,
1,
1001,
11,
1111,
#BPMCHANGE 173.11
1,
#BPMCHANGE 172
1111,
1110,
1111,
11,
1111,
1110,
1011,
500000000000000000000000000008000000000000000000,
10110000,
10110000,
11,
11,
10110000,
10110000,
22,
22,
13,
13,
13,
3333,
3,//34
#GOGOSTART
1212,
1212,
11,
500000000000000000000000000008000000000000000000,
1212,
1212,
11,
500000000000000000000000000008000000000000000000,
1212,
1212,
11,
500000000000000000000000000008000000000000000000,
12,
12,
12,
1,
7,
,
8,
,
1212,
1212,
11,
500000000000000000000000000008000000000000000000,
12,
34,
500000000000000000000000000008000000000000000000,
600000000000000000000000000008000000000000000000,
70000800,
70000800,
70000800,
70000800,//66
#GOGOEND
3,
3,
33,
3,
1111,
1111,
3333,
3,//74
#GOGOSTART
1212,
1212,
11,
500000000000000000000000000008000000000000000000,
100000000000000000000000500000000000000000000008,
01,
15,
000000000008000000000000000000300000300000000000,//82
#BPMCHANGE 171.55
#GOGOEND
6,
#BPMCHANGE 170.87
000000000000000000000000000008000000000000000000,
#BPMCHANGE 177
30303033,
03,
,
,
,
#END