Files
TJA-by-song-no/tja/204.tja
2026-03-04 23:59:27 +09:00

467 lines
5.2 KiB
Plaintext

//TJADB Project
TITLE:M@STERPIECE
TITLEJA:M@STERPIECE
SUBTITLE:--Satoru Kousaki feat. 765PRO ALLSTARS/THE iDOLM@STER ONE FOR ALL
SUBTITLEJA:「アイドルマスター」より
BPM:128
WAVE:MASTERPIECE.ogg
OFFSET:-2.132
DEMOSTART:82.042
//Shinuchi: 5640/4480/3390/2230
COURSE:Oni
LEVEL:6
BALLOON:13,13
SCOREINIT:670,2530
SCOREDIFF:178
#START
10200121,
00210212,
10200121,
00220220, //4
10101141,
01202040,
3333,
33,
600000000000000000000000000000000008000000000000,
3300, //10
1000202210102000,
1000202110202000,
1000202210102000,
1000202110202000,
1000202210102010,
01210220,
1000202110102000,
1110222011102220, //18
1000202210102020,
1000202110202000,
1000202210102020,
1000202110202000,
1000202210102010,
01210220,
1000202110102000,
3333, //26
#GOGOSTART
40000011
#GOGOEND
10112020,
70000800,
#GOGOSTART
40000011
#GOGOEND
10112020,
7000000000800011, //30
1010201000102011,
1010201110102022,
1010202210102011,
2011201120112011,
20202121, //35
#GOGOSTART
0010201210102010,
1022201000102010,
0010201210102010,
2022202000202012,
1010200010104012,
1022203000004000,
3000300030030060,
000000000000000008000000000000100000200000100000, //43
0010201210102010,
1022201000102010,
0010201210202010,
2022202000202012,
1010200010104012,
1022203000004000,
3333,
3022220030222200,
600000000000000000000000000000000008000000000000,
3300, //53
1000202220102010,
0022201000201020,
1000202220102010,
0022202000202000,
10101141,
01202040,
3333,
3022202030222020, //61
6,
000000000000000000000000000000000008000000000000,
#GOGOEND
000
#BPMCHANGE 118
#SCROLL 1.08
0,
#BPMCHANGE 122.3
#SCROLL 1.04
2
#BPMCHANGE 111.36
#SCROLL 1.14
2, //65
222000000000000000000000000000000000000000000000,
0,
#BARLINEOFF
#SCROLL 1
0, //68
#END
COURSE:Hard
LEVEL:4
BALLOON:10,10,9
SCOREINIT:740,4170
SCOREDIFF:215
#START
0202,
0202,
0202,
00200220, //4
10101141,
01202040,
3333,
33,
600000000000000000000000000000000008000000000000,
3300, //10
10201120,
1202,
10201120,
1202,
10201121,
01210020,
10211020,
1122, //18
10201120,
1202,
10201120,
1202,
10201121,
01210020,
10211020,
3333, //26
#GOGOSTART
4000
#GOGOEND
0112,
70000800,
#GOGOSTART
4000
#GOGOEND
0122,
70000800,
10110011,
1111,
30033000,
600000000000000000000000000000000000000000000008,
00000121, //35
#GOGOSTART
01201120,
10210121,
01211120,
10210220,
10101141,
10130040,
3000300030030070,
000000000000000000080000000000100000200000100000, //43
01201120,
10210121,
01211220,
10210220,
10101141,
10130040,
3333,
33,
600000000000000000000000000000000008000000000000,
3300, //53
10200121,
00210212,
10200121,
00220220,
10101141,
01202040,
3333,
33,
6,
000000000000000000000000000000000008000000000000, //63
#GOGOEND
000
#BPMCHANGE 118
#SCROLL 1.08
0,
#BPMCHANGE 122.3
#SCROLL 1.04
2
#BPMCHANGE 111.36
#SCROLL 1.14
2, //65
2,
0,
#BARLINEOFF
#SCROLL 1
0, //68
#END
COURSE:Normal
LEVEL:3
BALLOON:7,7,13,6
SCOREINIT:710,6280
SCOREDIFF:230
#START
0202,
0202,
0202,
00200220, //4
0404,
0404,
3333,
33,
600000000000000000000000000000000008000000000000,
3300, //10
1202,
1202,
1202,
1202,
10200011,
00110020,
1202,
1111, //18
1202,
1202,
1202,
1202,
10200011,
00110020,
1202,
3333, //26
#GOGOSTART
4000
#GOGOEND
0111,
70000800,
#GOGOSTART
4000
#GOGOEND
0222,
70000800,
10100011,
1111,
30033000,
9009,
8,//35
#GOGOSTART
1111,
10030000,
1111,
10030000,
0404,
0404,
3000300030030070,
000000000000000000080000000000000000000000000000, //43
1111,
10030000,
1111,
10030000,
0404,
0404,
3333,
33,
600000000000000000000000000000000008000000000000,
3300, //53
0202,
0202,
0202,
00200220,
0404,
0404,
3333,
33,
6,
000000000000000000000000000000000008000000000000, //63
#GOGOEND
000
#BPMCHANGE 118
#SCROLL 1.08
0,
#BPMCHANGE 122.3
#SCROLL 1.04
2
#BPMCHANGE 111.36
#SCROLL 1.14
2, //65
2,
0,
#BARLINEOFF
#SCROLL 1
0, //68
#END
COURSE:Easy
LEVEL:2
BALLOON:5,5,13,5
SCOREINIT:610,8640
SCOREDIFF:165
#START
0002,
0002,
0002,
00000220, //4
0404,
0404,
3333,
33,
600000000000000000000000000000000008000000000000,
3300, //10
1202,
0202,
1202,
0202,
1202,
1202,
1202,
1111, //18
1202,
0202,
1202,
0202,
1202,
1202,
1202,
3333, //26
#GOGOSTART
4
#GOGOEND
0,
70000800,
#GOGOSTART
4
#GOGOEND
0,
70000800,
1100,
1111,
33,
9009,
80000006, //35
#GOGOSTART
0,
000000000000000000000000000008000000000000600000,
0,
000000000000000000000000000008000000000000000000,
0404,
0404,
30303007,
000000000000000000080000000000000000000000600000, //43
0,
000000000000000000000000000008000000000000600000,
0,
000000000000000000000000000008000000000000000000,
0404,
0404,
3333,
33,
600000000000000000000000000000000008000000000000,
3300, //53
0202,
0202,
0202,
00200220,
0404,
0404,
3333,
33,
6,
000000000000000000000000000000000008000000000000, //63
#GOGOEND
000
#BPMCHANGE 118
#SCROLL 1.08
0,
#BPMCHANGE 122.3
#SCROLL 1.04
2
#BPMCHANGE 111.36
#SCROLL 1.14
2, //65
2,
0,
#BARLINEOFF
#SCROLL 1
0, //68
#END