Files
TJA-by-song-no/tja/213.tja
2026-03-04 23:59:27 +09:00

499 lines
5.3 KiB
Plaintext

//TJADB Project
TITLE:Nocturne Op. 9-2
TITLEJA:夜想曲Op.9-2
SUBTITLE:--Jesahm
BPM:192
WAVE:Nocturne Op. 9-2.ogg
OFFSET:-1.883
DEMOSTART:42.210
COURSE:Oni
LEVEL:8
BALLOON:11
SCOREINIT:630
SCOREDIFF:170
#START
#MEASURE 3/4
102001100,
201002200,
102001100,
140,
102001100,
201002200,
102001100,
4,
100201200,
100202200,
100201202,
122,
100201200,
100202200,
100201202,
122,
100111200,
100222100,
100201202,
122,
100001001,
202111202,
102001100,
201002200,
102001100,
340,
101102002,
102201002,
101102000,
300111,
#MEASURE 4/4
200000210100,
1120,
100100222202,
100010000020000011100000,
100100111202,
101002001001,
100100222202,
101002010201,
003003003003,
04,
100201100200,
101201101202,
102002200202,
1212,
100201100200,
112120100200,
100201100201,
0000112210102000,
100100201010,
2120,
100100200111,
1220,
201000100100,
101202010105,
000000000000000000000000000000080000000000003000,
001201001203,
000030000000200200100011,
130000,
#GOGOSTART
100201101202,
100201102202,
100201101202,
101201002100,
102200102200,
102200102102,
101102101202,
112101002000,
100201101202,
100201102202,
100201101202,
101100202200,
100201101202,
100201102202,
1414,
102001001000,
#GOGOEND
101102101102,
100203000000,
11221010,
100203003000,
102002102002,
110101004000,
0000100022011101,
200000000000500000000000000000000000000008000000,
1120,
102001002100,
100100202202,
101201002000,
100100222101,
202001002102,
1120,
700000000008,
020300,
020300,
001001002001,
1,
100100222202,
100010000020000011100000,
100100111202,
102101201202,
101202101222,
111020100010202020100010,
002001002002,
003004000000,
#END
COURSE:Hard
LEVEL:7
BALLOON:9
SCOREINIT:620
SCOREDIFF:160
#START
#MEASURE 3/4
102000100,
102000200,
102000100,
120,
102000100,
102000200,
102000100,
3,
122,
100202200,
100202202,
1,
122,
100202200,
100202202,
1,
100101100,
100202200,
100202202,
1,
100001001,
101101101,
102000100,
102000200,
102000100,
340,
101101000,
202202000,
101101000,
3,
#MEASURE 4/4
1,
1120,
1122,
101002001100,
1122,
101002001000,
1122,
101002000000,
003003003004,
,
100101100200,
1212,
100101100200,
0202,
100101100200,
111100100000,
500000000000000000000008000000000000200000001000,
,
100211,
21,
100000200111,
1,
201000100100,
101101000000,
500000000000000000000000000000000008000000003000,
001101001103,
000030000000200200100000,
330000,//58
#GOGOSTART
100200101100,
100200102200,
100200101100,
202202002200,
101100101100,
101100202200,
201101101101,
101101002000,
100200101100,
100200102200,
100200101100,
101100100000,
100200101100,
100200102200,
1212,
102001001000,//74
#GOGOEND
101101101101,
100203000000,
11111010,
100203003000,
101001101001,
100101004000,
2000100020001100,
200000000000500000000000000000000000000008000000,
1120,
102001002100,
1120,
101001002000,
1120,
202001002100,
1120,
700000000008,
020300,
020300,
001001002000,
3,
1122,
101002001100,
1122,
101002001100,
101101101101,
101202102000,
002001002002,
001004000000,
,
,
,
,
#END
COURSE:Normal
LEVEL:6
BALLOON:8,8,6,6
SCOREINIT:860
SCOREDIFF:210
#START
#SCROLL 0.82
#MEASURE 3/4
001000100,
002000200,
001000100,
110,
001000100,
002000200,
001000100,
3,
122,
1,
122,
1,
122,
122,
122,
1,
112,
1,
112,
1,
7,
008,
001000100,
002000200,
001000100,
110,
100001000,
100002000,
100001000,
3,
#MEASURE 4/4
1,
1100,
1120,
101001000000,
1120,
202002000000,
1120,
101001000000,
003003003003,
,
1120,
11,
1122,
1,
1120,
11,
500000000000000000000000000000000000000000000008,
,
1120,
11,
1122,
12,
1011,
10100500,
000000000000000000000000000000080000000000003000,
000000000003,
003000000000,
440000,//58
#GOGOSTART
1202,
1212,
1202,
1,
11,
1022,
7,
08,
1202,
1212,
1202,
11,
1202,
1212,
0404,
500000000000000000000000000000000008000000000000,//74
#GOGOEND
1111,
100002000000,
1122,
100002002000,
33,
300000004000,
9009,
8,
1120,
100001000000,
1120,
100002000000,
1120,
100001000000,
1120,
7008,
002000100000,
002000100000,
001001001000,
1,
1120,
101001000000,
1120,
202002000000,
1120,
101001000000,
001001001001,
001002000000,
,
,
,
,
#END
COURSE:Easy
LEVEL:4
BALLOON:8,8,5,5
SCOREINIT:700
SCOREDIFF:180
#START
#SCROLL 0.82
#MEASURE 3/4
001,
001,
001,
110,
001,
001,
001,
1,
1,
1,
2,
2,
110,
1,
220,
2,
111,
1,
222,
2,
7,
008,
001,
001,
001,
110,
3,
4,
3,
4,
#MEASURE 4/4
1,
1100,
1110,
1,
1110,
2,
1110,
1,
003003003003,
,
12,
12,
1110,
1,
12,
12,
500000000000000000000000000000000000000000000008,
,
1,
22,
1,
2220,
11,
1105,
000000000000000000000000000000080000000000003000,
000000000003,
003000000000,
440000,//58
#GOGOSTART
0202,
0202,
0202,
500000000000000000000000000008000000000000000000,
11,
1011,
7,
08,
0202,
0202,
0202,
500000000000000000000000000008000000000000000000,
1,
11,
0303,
500000000000000000000000000008000000000000000000,//74
#GOGOEND
11,
1,
1011,
1,
33,
3,
9009,
8,
12,
1,
12,
2,
12,
1,
12,
7008,
001000100000,
001000100000,
,
3,
1110,
1,
1110,
2,
1110,
1,
00050000,
000000000000000000000000000008000000000000000000,
,
,
,
,
#END