Files
TJA-by-song-no/tja/300.tja
2026-03-04 23:59:27 +09:00

414 lines
4.7 KiB
Plaintext

//TJADB Project
TITLE:Mulberry
TITLEJA:Mulberry
SUBTITLE:--Mirai feat. Chata
BPM:170
WAVE:Mulberry.ogg
OFFSET:-1.501
DEMOSTART:2.096
COURSE:Oni
LEVEL:7
SCOREINIT:520
SCOREDIFF:140
#START
2000200020222000,//1
#GOGOSTART
10211220,
10211220,
1022201000202000,
12210220,
1000201110102011,
1011201020002000,
2022202020002022,
2020200022222000,
10211220,
10211220,
1022201000202000,
34404400,
1010201000202200,
3000300022222000,
6,
000000000000000000000008000000000000000000000000,
1000201010202200,
30400221,//19
#GOGOEND
10211020,
11211020,
10211020,
1010201010202220,
10211020,
11211020,
1000202010200011,
2020001022202220,
10211020,
11211020,
10211020,
1010201010202220,
10211020,
11211020,
10221202,
30300221,
1000201110102011,
2010001020221020,
1000201110102022,
1020001022202220,
1000201110102011,
2010001020122020,
1000201110102011,
2020001022202220,
1010201110102011,
2011201120112011,
2020102220102022,
1022102210221022,//47
#MEASURE 5/4
#GOGOSTART
10102011102020112000,
10202011102020122022,
#MEASURE 6/4
112020102210122022112211,//50
#MEASURE 4/4
#GOGOEND
10210120,
11210120,
10210120,
12210440,
40210120,
12212220,
1010201000202200,
3300,//58
#GOGOSTART
1010201110102011,
1010201110202000,
1022201000221022,
1022201000202000,
1010201110102011,
1011201220222000,
2022202020002022,
2020200022222000,
1010201110102011,
1010201110202000,
1022201000201022,
14404400,
1010201000202200,
3000300022222000,
6,
000000000000000000000008000000000000000000000000,
1000201010202200,
3400,
2220300000000000,
#END
COURSE:Hard
LEVEL:6
SCOREINIT:650
SCOREDIFF:188
#START
0022,//1
#GOGOSTART
10211000,
10211000,
12010220,
12210220,
10211020,
11211020,
500000000000000000000000000000000000000008000000,
00002220,
10211000,
10211000,
12010220,
12202200,
1010201000202200,
3300,
6,
000000000000000000000008000000000000000000000000,
1000201010002200,
3400,//19
#GOGOEND
10011020,
11011020,
10011020,
11011220,
10011020,
11011020,
500000000000000000000000000000000008000000000000,
00002220,
10011020,
11011020,
10011020,
11011220,
10011020,
11011020,
10011020,
3300,
10210120,
11210120,
10210120,
11210220,
10210120,
11210120,
500000000000000000000000000000000008000000000000,
00002220,
10210120,
11210120,
10210120,
11210220,//47
#MEASURE 5/4
#GOGOSTART
1212121210,
10201020102010201011,
#MEASURE 6/4
102010203040304030001111,//50
#MEASURE 4/4
#GOGOEND
10210120,
12210120,
10210120,
12210440,
40210120,
12212220,
500000000000000000000000000008000000000000000000,
3300,//58
#GOGOSTART
11210120,
11210120,
12010220,
12210220,
11210120,
11211020,
500000000000000000000000000000000000000008000000,
00002220,
11210120,
11210120,
12010220,
12202200,
1010201000202200,
3300,
6,
000000000000000000000008000000000000000000000000,
1000201010002200,
3400,
2220300000000000,
,
,
#END
COURSE:Normal
LEVEL:6
BALLOON:23
SCOREINIT:750
SCOREDIFF:225
#START
0022,//1
#GOGOSTART
10011020,
10011000,
10011020,
10011000,
10011020,
10011000,
500000000000000000000000000000000000000008000000,
00002220,
10011020,
10011000,
10011020,
12202200,
10011020,
3300,
6,
000000000000000000000008000000000000000000000000,
10211021,
1300,//19
#GOGOEND
1202,
1202,
1202,
10200220,
1202,
1202,
500000000000000000000000000000000008000000000000,
00002220,
1202,
1202,
1202,
10200220,
1202,
1202,
1202,
3300,
1220,
1202,
1220,
10200220,
1220,
1202,
500000000000000000000000000000000008000000000000,
00002220,
1220,
1202,
1220,
1200,//47
#MEASURE 5/4
#GOGOSTART
11112,
11112,
#MEASURE 6/4
333340,//50
#MEASURE 4/4
#GOGOEND
1202,
1202,
10110110,
22202220,
1202,
10202220,
500000000000000000000000000008000000000000000000,
3300,//58
#GOGOSTART
10211020,
10211000,
10211020,
10211220,
10211020,
10211000,
500000000000000000000000000000000000000008000000,
00002220,
10211020,
10211000,
10211020,
12202200,
10211020,
3300,
6,
000000000000000000000008000000000000000000000000,
10211021,
1300,
0900,
,
0908,
#END
COURSE:Easy
LEVEL:4
BALLOON:18
SCOREINIT:660
SCOREDIFF:239
#START
,//1
#GOGOSTART
11,
1,
1110,
1,
11,
1110,
500000000000000000000000000000000000000008000000,
,
11,
1,
1110,
1,
1110,
3300,
6,
000000000000000000000008000000000000000000000000,
10011001,
1300,//19
#GOGOEND
1200,
1200,
11,
2,
1200,
1200,
500000000000000000000000000000000008000000000000,
,
1200,
1200,
11,
2,
1200,
1200,
22,
3300,
1220,
1220,
11,
2,
1220,
1220,
500000000000000000000000000000000008000000000000,
,
1220,
1220,
11,
2,//47
#MEASURE 5/4
#GOGOSTART
11110,
11110,
#MEASURE 6/4
333330,//50
#MEASURE 4/4
#GOGOEND
1,
11,
1110,
2220,
1,
11,
500000000000000000000000000008000000000000000000,
3300,//58
#GOGOSTART
1210,
1210,
1110,
1,
1210,
1210,
500000000000000000000000000000000000000008000000,
00002220,
1210,
1210,
1110,
1,
1122,
3300,
6,
000000000000000000000008000000000000000000000000,
10011001,
1300,
0900,
,
0908,
#END