Files
TJA-by-song-no/tja/306.tja
2026-03-04 23:59:27 +09:00

346 lines
3.9 KiB
Plaintext

//TJADB Project
TITLE:Xastur no Madousho
TITLEJA:ザストゥールの魔導書
SUBTITLE:--YMY
BPM:140
WAVE:Xastur no Madousho.ogg
OFFSET:-6.964
DEMOSTART:13.812
COURSE:Oni
LEVEL:8
BALLOON:10,10
SCOREINIT:560
SCOREDIFF:145
#START
#SCROLL 1.1
30000001,
30000001,
33,
10101140,
1020102010221020,
1020102010221120,
1020102010221020,
1020102211203000,
1020102010221020,
1020102010221120,
1020102010221020,
3000022030303000,
1002001011102010,
1002001012102010,
100000000100000000202020100000000100000000202020,
100000200000200000100000200200100200202020100000,
1001002211102010,
100000000100000000202020100200100000200000100000,
100000000100000000200000100000202020200000100000,
1020202022121000,
1002001122102010,
1001002211102010,
100000000100000000202020100000000100000000202020,
100000200000200000100000200200100200202020100000,
1001002211102010,
100000000100000000202020100100100000200000100000,
100000000100000000200200100100202020100000200000,
1020201122121000,
3030007000000800,
300000300000000000600000000000000008000000000000,
3030007000000800,
1211102011104000,
3030221202122010,
3030221202212210,
3030221202122010,
1211201011221020,
3000200020002011,
1000200020002011,
100000200000200222200100,
100000200000200222200100,
#GOGOSTART
1022102010221020,
1122102011221020,
1122112011221120,
1112221112221112,
200200100100202020200200100100200200100000000000,
#GOGOEND
1020102010221020,
1020102010221120,
1020102010221020,
1020102211203000,
1020102010221020,
1020102010221120,
1020102010221020,
1020102211203000,
#GOGOSTART
1022102210221020,
1022102210221122,
1022102210221020,
1022102211203011,
1022102110221020,
1022102110221122,
1022111222111221,
1003022030403000,
#GOGOEND
#END
COURSE:Hard
LEVEL:6
BALLOON:6,6
SCOREINIT:630
SCOREDIFF:178
#START
30000001,
30000001,
33,
1114,
1020100010222000,
1020100010111010,
1020100010222000,
1020100011103000,
1020100010222000,
1020100010111010,
1020100010222000,
30003330,
1002001010102000,
1002001010102000,
1001002010010020,
3,
1001002010102000,
1001002010102000,
1001002010102000,
3,
1001002011102000,
1001002011102000,
1001002010010020,
3,
1001002011102000,
1001002011102000,
1001002011101000,
3,
33070800,
300000300000000000600000000000000008000000000000,
33070800,
3003002010104000,
3030000022202000,
300000300000000000600000000000000008000000000000,
3030000022202000,
3003000020201020,
1000200000002011,
1000200000002011,
1000200000222020,
1000200000222000,
#GOGOSTART
1011100010111000,
1011101010111000,
1110100011101000,
1110101011101000,
4000000022203000,
#GOGOEND
1020100010222000,
1020100010111010,
1020100010222000,
1020100011103000,
1020100010222000,
1020100010111010,
1020100010222000,
1020100011103000,
#GOGOSTART
1011100010222000,
1011100010222020,
1011100010222000,
1011100011103000,
1011100020111000,
1011100020111010,
1011100020111000,
3003000030403000,
#GOGOEND
#END
COURSE:Normal
LEVEL:5
BALLOON:4,4,4,4
SCOREINIT:890
SCOREDIFF:320
#START
3,
3,
33,
1130,
11,
10101110,
11,
10101130,
11,
10101110,
11,
3033,
10011000,
10011000,
1210,
3,
10011000,
10011000,
10101110,
3,
10011020,
10011020,
1210,
3,
10011020,
10011020,
10101110,
3,
33070800,
300000300000000000600000000008000000000000000000,
33070800,
3003000010001000,
33070800,
300000300000000000600000000008000000000000000000,
33070800,
3022,
4002,
2002,
2002,
2,
#GOGOSTART
1202,
1202,
1212,
11101110,
3,
#GOGOEND
11,
10101110,
11,
10101130,
11,
10101110,
11,
1130,
#GOGOSTART
12,
10201110,
12,
10201130,
12,
10201110,
12,
30003330,
#GOGOEND
#END
COURSE:Easy
LEVEL:3
BALLOON:3,3,3,3
SCOREINIT:710
SCOREDIFF:308
#START
3,
3,
33,
1130,
11,
1110,
11,
1130,
11,
1110,
11,
3033,
11,
1011,
11,
1,
11,
1011,
12,
3,
12,
1022,
12,
1,
12,
1022,
1110,
3,
30070800,
300000000000000000600000000008000000000000000000,
30070800,
3011,
30070800,
300000000000000000600000000008000000000000000000,
30070800,
3022,
4,
2,
2,
2,
#GOGOSTART
12,
2220,
12,
2220,
3,
#GOGOEND
11,
1110,
11,
1130,
11,
1110,
11,
1130,
#GOGOSTART
12,
1120,
12,
1230,
12,
1210,
12,
3033,
#GOGOEND
#END