Files
TJA-by-song-no/tja/323.tja
2026-03-04 23:59:27 +09:00

498 lines
5.3 KiB
Plaintext

//TJADB Project
TITLE:Phoenix
TITLEJA:Phoenix
SUBTITLE:--Yoshinori Hirai feat. Singman
SUBTITLEJA:
BPM:168
WAVE:Phoenix.ogg
OFFSET:-1.603
DEMOSTART:46.580
//shinuchi: 5330/3570/2300/1680
COURSE:Oni
LEVEL:7
BALLOON:14,14
SCOREINIT:530,1780
SCOREDIFF:130
#START
11212212,
22122212,
11212212,
22124000,
11212212,
22122230,
33033033,
03304440, //8
12,
00002001,
12,
00002011,
2000101110102010,
0010201020112010,
2000101110102010,
0010221020112220, //16
12,
00002001,
12,
00002011,
2000202210102010,
0010201020112010,
2000202210102010,
0010221020112220, //24
10211021,
0010201110102011,
10211021,
0010201110102022,
10211021,
0010201110105000,
000000000000000000000000000000000000000000000008,
0000000011101110, //32
#GOGOSTART
2220222011101110,
2220222011101110,
2220201010102011,
1011201110112022,
1010201120102011,
2010201120106000,
000000000000000000000000000000000000000000000008,
0000000011101110, //40
2220222011101110,
2220222011101110,
2220201010102011,
1011201110112022,
1010201120102011,
2010201120106000,
0,
000000000000000000000008000000000000000000000000, //48
#GOGOEND
11012011,
0010200011112000,
22122022,
1020200040002222,
11012011,
0010200011112000,
22122022,
1020200040002222, //56
10212201,
10212201,
700000000000000000000000000000000000000000000008,
0022,
10212201,
10212201,
700000000000000000000000000000000000000000000008,
0033, //64
#GOGOSTART
0000400011101110,
2220222011101110,
2220201010102011,
1011201110112022,
1010201120102011,
2010201120106000,
000000000000000000000000000000000000000000000008,
0000000011101110, //72
1110201022201020,
1110201022201020,
1110201010102011,
1011201110112022,
1010201120112011,
2011201120112012,
2010201020201012,
2020102022221110, //80
#GOGOEND
#BPMCHANGE 166.12
3,
#BPMCHANGE 168
0,
#BPMCHANGE 159.61
0,
0,
0, //85
#END
COURSE:Hard
LEVEL:6
BALLOON:12,12
SCOREINIT:580,2550
SCOREDIFF:153
#START
10002001,
10102102,
10102001,
1140,
10012001,
10102230,
33033033,
03304440,
12,
00002001,
12,
00002011,
20111121,
01210121,
20111121,
0010201000102220, //16
12,
00002001,
12,
00002011,
20112121,
01210121,
20112121,
0010201000102220,
10211021,
01211120,
10211021,
01211120,
10211021,
01211150,
000000000000000000000000000000000000000000000008,
0000000011101110, //32
#GOGOSTART
2000200011101110,
2000200011101110,
20211121,
11211120,
11201120,
3346,
000000000000000000000000000000000000000000000008,
0000000011101110,
2000200011101110,
2000200011101110,
20211121,
11211120,
11201120,
3346,
0,
000000000000000000000008000000000000000000000000, //48
#GOGOEND
11022011,
0020200011111000,
22011022,
0010100022222000,
11022011,
0020200011111000,
22011022,
0010100022222000,
10212000,
10212000,
700000000000000000000000000000000000000000000008,
0022,
10212000,
10212000,
700000000000000000000000000000000000000000000008,
0033, //64
#GOGOSTART
0000400011101110,
2000200011101110,
20211121,
11211120,
11201120,
3346,
000000000000000000000000000000000000000000000008,
0000000011101110,
11212212,
11212212,
20211121,
11211120,
11201120,
3346,
0,
000000000000000000000008000000000000000000000000,//80
#GOGOEND
#BPMCHANGE 166.12
3,
#BPMCHANGE 168
0,
#BPMCHANGE 159.61
0,
0,
0, //85
#END
COURSE:Normal
LEVEL:5
BALLOON:9,9
SCOREINIT:680,4130
SCOREDIFF:198
#START
12,
1120,
1120,
1140,
12,
1123,
33033033,
03304440,
12,
02,
12,
02,
00111021,
00210020,
00111021,
00210020, //16
12,
02,
12,
02,
00111021,
00210020,
00111021,
00210020,
10011001,
01011000,
20022002,
02022000,
10011001,
01011050,
000000000000000000000000000000000000000000000008,
0011, //32
#GOGOSTART
2211,
2211,
00111010,
10111010,
0112,
3346,
000000000000000000000000000000000000000000000008,
0011,
2211,
2211,
00111010,
10111010,
0112,
3346,
0,
000000000000000000000008000000000000000000000000, //48
#GOGOEND
11011011,
01101000,
22022022,
02202000,
11011011,
01101000,
22022022,
02202020,
11,
11,
700000000000000000000000000000000000000000000008,
0022,
11,
11,
700000000000000000000000000000000000000000000008,
0033, //64
#GOGOSTART
0411,
2211,
00111010,
10111010,
0112,
3346,
000000000000000000000000000000000000000000000008,
0011,
2211,
2211,
00111010,
10111010,
0112,
3346,
0,
000000000000000000000008000000000000000000000000, //80
#GOGOEND
#BPMCHANGE 166.12
3,
#BPMCHANGE 168
0,
#BPMCHANGE 159.61
0,
0,
0, //85
#END
COURSE:Easy
LEVEL:4
BALLOON:4,6,6
SCOREINIT:610,6120
SCOREDIFF:183
#START
1,
2,
1,
24,
1,
2003,
700000000000000000000000080000000000600000000000,
000000000000000000000000000008000000000000000000,
12,
02,
12,
02,
00101001,
00010000,
00101001,
00010000, //16
12,
02,
12,
02,
00101001,
00010000,
00101001,
00010000,
10011000,
10011000,
20022000,
20022000,
10011000,
10011050,
000000000000000000000000000000000000000000000008,
0011, //32
#GOGOSTART
0011,
0011,
0111,
1111,
0111,
3336,
000000000000000000000000000000000000000000000008,
0011,
0011,
0011,
0111,
1111,
0111,
3336,
0,
000000000000000000000008000000000000000000000000, //48
#GOGOEND
10010010,
01001000,
20020020,
02002000,
10010010,
01001000,
20020020,
02002020,
11,
11,
700000000000000000000000000000000000000000000008,
0022,
11,
11,
700000000000000000000000000000000000000000000008,
0033, //64
#GOGOSTART
0011,
0022,
0111,
1111,
0111,
3336,
000000000000000000000000000000000000000000000008,
0011,
0011,
0022,
0111,
1111,
0111,
3336,
0,
000000000000000000000008000000000000000000000000, //80
#GOGOEND
#BPMCHANGE 166.12
3,
#BPMCHANGE 168
0,
#BPMCHANGE 159.61
0,
0,
0, //85
#END