509 lines
6.2 KiB
Plaintext
509 lines
6.2 KiB
Plaintext
//TJADB Project
|
|
TITLE:Rumble Ranbu
|
|
TITLEJA:らんぶる乱舞
|
|
SUBTITLE:--Ayako Saso (Sampling Masters)
|
|
BPM:160
|
|
WAVE:Rumble Ranbu.ogg
|
|
OFFSET:-1.705
|
|
DEMOSTART:25.697
|
|
|
|
COURSE:Edit
|
|
LEVEL:8
|
|
SCOREINIT:400
|
|
SCOREDIFF:90
|
|
|
|
|
|
#START
|
|
|
|
|
|
1110202000221000,
|
|
1110202000221000,
|
|
1110202000221000,
|
|
100100100100200000200000100200200000200000202020,
|
|
1110202000221010,
|
|
1110202000221010,
|
|
1110202000221010,
|
|
100100100100200000200000100200200000200000202020,
|
|
1120120211201202,
|
|
1120120211202202,
|
|
1120120211201202,
|
|
1120120212202020,
|
|
1120120211201202,
|
|
1120120211202202,
|
|
1120120211201202,
|
|
1120111020201110,
|
|
1000102010221020,
|
|
1022111010002020,
|
|
1000102010221020,
|
|
1022111020002020,
|
|
1011202010221020,
|
|
1022102210002020,
|
|
1000102010221020,
|
|
1010221120000000,
|
|
1120120210102020,
|
|
1120120210201120,
|
|
1120120210102020,
|
|
1120120211201120,
|
|
1120120210102020,
|
|
1120120211201202,
|
|
1120120211202020,
|
|
3000303040002222,
|
|
10012021,
|
|
11201120,
|
|
10012020,
|
|
11201120,
|
|
10012021,
|
|
11201120,
|
|
10012020,
|
|
11201120,
|
|
1000201110202010,
|
|
1110200011102000,
|
|
1000201110102020,
|
|
1111200011112000,
|
|
1000201110102020,
|
|
1111201011112010,
|
|
1110202011102020,
|
|
1110111011112220,//48
|
|
|
|
#GOGOSTART
|
|
30221121,
|
|
100100200200100100200200100000000000400000101010,
|
|
10221121,
|
|
200200100100200200100100200000000000400000101010,
|
|
10221122,
|
|
100100200200100100200200100000000000400000101010,
|
|
10221122,
|
|
44344434,
|
|
3434,
|
|
1011101110111011,
|
|
1000102010221020,
|
|
1022111010002020,
|
|
1000102010221020,
|
|
1022111020002020,
|
|
1011202010221020,
|
|
1022102210002020,
|
|
1000102010221020,
|
|
1010221120000000,
|
|
1120120210102020,
|
|
1120120210201120,
|
|
1120120210102020,
|
|
1120120211201120,
|
|
1120120210102020,
|
|
1120120211201202,
|
|
1120120211202020,
|
|
3000303040402222,//74
|
|
|
|
#GOGOEND
|
|
1110202000221010,
|
|
1110202000221010,
|
|
1110202000221010,
|
|
100100100000200000200000100100200000200000202020,
|
|
2010222011201020,
|
|
1010222011201020,
|
|
3010222011201020,
|
|
32323233,
|
|
3,
|
|
3,
|
|
|
|
|
|
#END
|
|
|
|
|
|
COURSE:Oni
|
|
LEVEL:8
|
|
SCOREINIT:480
|
|
SCOREDIFF:125
|
|
|
|
|
|
#START
|
|
|
|
|
|
30110000,
|
|
30110000,
|
|
30110000,
|
|
3000101011101000,
|
|
30110200,
|
|
30110200,
|
|
30110200,
|
|
300000000000100000100000100100100000100000202020,
|
|
1110200010102000,
|
|
1110200110102000,
|
|
1110200111102001,
|
|
1110200110102020,
|
|
1110200010102000,
|
|
1110200011112000,
|
|
1110200111102001,
|
|
1110400110104000,
|
|
1011102010111020,
|
|
100222100200100000100000,
|
|
1011101110111020,
|
|
1010201010222000,
|
|
1011102010221020,
|
|
1011102010202000,
|
|
100000200200100000100000100000200000102020100000,
|
|
1000303040002222,
|
|
1011101010221020,
|
|
100222100100200200100200,
|
|
1110102011101020,
|
|
1110102011112020,
|
|
1011202010112020,
|
|
1011202011202000,
|
|
100000200200100000200200100000200000102020100000,
|
|
10334000,
|
|
1022,
|
|
1000002220002000,
|
|
1000002220202000,
|
|
1,
|
|
1022,
|
|
2211,
|
|
1011,
|
|
500000000000000000000000000000000008000000000000,
|
|
1000202210002000,
|
|
1000202210202000,
|
|
10201220,
|
|
1202,
|
|
1000102210001000,
|
|
1000102210201000,
|
|
11221122,
|
|
1020102011201120,//48
|
|
|
|
#GOGOSTART
|
|
3011101000221020,
|
|
1111103030000000,
|
|
1011104000221010,
|
|
43343000,
|
|
1011103000221020,
|
|
1111111110000000,
|
|
3011101000221020,
|
|
4030304030211210,
|
|
500000000000000000000000000000000000000008000000,
|
|
2222,
|
|
1011102010111020,
|
|
100222100200100000100000,
|
|
1011101110111020,
|
|
1010201010222000,
|
|
1011102010221020,
|
|
1011102010202000,
|
|
100000200200100000100000100000200000102020100000,
|
|
1000303040002222,
|
|
1011102010111020,
|
|
100222100200100200100200,
|
|
1011101110111020,
|
|
1010201010222000,
|
|
1011102010221020,
|
|
1011102010202000,
|
|
100000200200100000100000100000200000102020100000,
|
|
10334000,//74
|
|
|
|
#GOGOEND
|
|
3000111000200010,
|
|
3000111000200010,
|
|
3000111000200010,
|
|
3000111011201010,
|
|
3022101022111020,
|
|
3022101022112020,
|
|
3022101022111020,
|
|
3022111122111110,
|
|
500000000000000000000000000000000000000008000000,
|
|
3,
|
|
|
|
|
|
#END
|
|
|
|
|
|
COURSE:Hard
|
|
LEVEL:8
|
|
SCOREINIT:520
|
|
SCOREDIFF:120
|
|
|
|
#START
|
|
30110000,
|
|
30110000,
|
|
30110000,
|
|
3000101011101000,
|
|
30110200,
|
|
30110200,
|
|
30110200,
|
|
3000101011101000,
|
|
11201120,
|
|
11201120,
|
|
11201120,
|
|
11201140,
|
|
1010200011102000,
|
|
1010200011102000,
|
|
1010200011102000,
|
|
11401140,
|
|
1011100010111000,
|
|
1011102020002000,
|
|
1011101110111000,
|
|
1011102020000000,
|
|
1011100010111000,
|
|
1011101010002000,
|
|
1011100010111000,
|
|
10333000,
|
|
1001102010202000,
|
|
1001102010202000,
|
|
1011101110111000,
|
|
1001102010222000,
|
|
1001102010011020,
|
|
1001102010002000,
|
|
1001102010011020,
|
|
10444000,
|
|
1022,
|
|
10022020,
|
|
10022020,
|
|
1,
|
|
1022,
|
|
2211,
|
|
1011,
|
|
500000000000000000000000000000000008000000000000,
|
|
10221020,
|
|
10221020,
|
|
10221020,
|
|
1,
|
|
10121010,
|
|
10121010,
|
|
11201120,
|
|
12121210,//48
|
|
|
|
#GOGOSTART
|
|
1011101000202020,
|
|
11111000,
|
|
1011101000202020,
|
|
33333000,
|
|
1011101000202020,
|
|
12111000,
|
|
1011101000202020,
|
|
34343030,
|
|
500000000000000000000000000000000000000008000000,
|
|
2222,
|
|
1011100010111000,
|
|
1011102020002000,
|
|
1011101110111000,
|
|
1011102020000000,
|
|
1011100010111000,
|
|
1011101010002000,
|
|
1011100010111000,
|
|
10333000,
|
|
1001102010202000,
|
|
1001102010202000,
|
|
1011101110111000,
|
|
1001102010222000,
|
|
1001102010011020,
|
|
1001102010002000,
|
|
1001102010011020,
|
|
10444000,//74
|
|
|
|
#GOGOEND
|
|
30110200,
|
|
30110200,
|
|
30110200,
|
|
3000101011101000,
|
|
30111020,
|
|
30111020,
|
|
30111020,
|
|
3000111011101110,
|
|
500000000000000000000000000000000000000008000000,
|
|
3,
|
|
,
|
|
,
|
|
,
|
|
#END
|
|
|
|
COURSE:Normal
|
|
LEVEL:7
|
|
SCOREINIT:540
|
|
SCOREDIFF:140
|
|
|
|
#START
|
|
30110000,
|
|
30110000,
|
|
30110000,
|
|
30111000,
|
|
30110000,
|
|
30110000,
|
|
30110000,
|
|
30111030,
|
|
1212,
|
|
1212,
|
|
1212,
|
|
1214,
|
|
1212,
|
|
1212,
|
|
1212,
|
|
1414,
|
|
10111010,
|
|
11111000,
|
|
10111010,
|
|
11111000,
|
|
11101110,
|
|
11111000,
|
|
10101110,
|
|
10333000,
|
|
10111020,
|
|
11111000,
|
|
10111020,
|
|
11111000,
|
|
11102220,
|
|
11111000,
|
|
10111020,
|
|
10444000,
|
|
12,
|
|
12,
|
|
1022,
|
|
1,
|
|
12,
|
|
12,
|
|
1022,
|
|
500000000000000000000000000000000008000000000000,
|
|
1012,
|
|
1012,
|
|
1012,
|
|
1,
|
|
1012,
|
|
1012,
|
|
11,
|
|
1212,//48
|
|
|
|
#GOGOSTART
|
|
10110110,
|
|
11111000,
|
|
10110110,
|
|
33333000,
|
|
10110220,
|
|
11111000,
|
|
10110220,
|
|
33333030,
|
|
500000000000000000000000000000000000000000000008,
|
|
,
|
|
10111020,
|
|
11111000,
|
|
10111020,
|
|
11111000,
|
|
11101110,
|
|
11111020,
|
|
10111020,
|
|
10333000,
|
|
10111020,
|
|
11111000,
|
|
11102220,
|
|
11111000,
|
|
11102220,
|
|
11111000,
|
|
10111020,
|
|
10444000,//74
|
|
|
|
#GOGOEND
|
|
30110000,
|
|
30110000,
|
|
30110000,
|
|
30111000,
|
|
10111010,
|
|
10111010,
|
|
10111010,
|
|
10111010,
|
|
500000000000000000000000000000000008000000000000,
|
|
3,
|
|
,
|
|
,
|
|
,
|
|
#END
|
|
|
|
COURSE:Easy
|
|
LEVEL:4
|
|
SCOREINIT:390
|
|
SCOREDIFF:120
|
|
|
|
#START
|
|
1100,
|
|
1100,
|
|
1100,
|
|
1110,
|
|
1100,
|
|
1100,
|
|
1100,
|
|
1110,
|
|
1110,
|
|
11,
|
|
1110,
|
|
11,
|
|
1110,
|
|
11,
|
|
1110,
|
|
1,
|
|
1111,
|
|
1110,
|
|
1111,
|
|
1110,
|
|
11,
|
|
1110,
|
|
11,
|
|
3330,
|
|
1111,
|
|
1110,
|
|
1111,
|
|
1110,
|
|
11,
|
|
1110,
|
|
11,
|
|
3330,
|
|
12,
|
|
12,
|
|
12,
|
|
1,
|
|
12,
|
|
12,
|
|
12,
|
|
1,
|
|
1011,
|
|
1011,
|
|
1011,
|
|
1,
|
|
1011,
|
|
1011,
|
|
1011,
|
|
1,//48
|
|
|
|
#GOGOSTART
|
|
1110,
|
|
10111000,
|
|
1110,
|
|
10111000,
|
|
1110,
|
|
10111000,
|
|
1110,
|
|
10111000,
|
|
500000000000000000000000000000000000000000000008,
|
|
,
|
|
1111,
|
|
1110,
|
|
1111,
|
|
1110,
|
|
11,
|
|
1110,
|
|
11,
|
|
3330,
|
|
1111,
|
|
1110,
|
|
1111,
|
|
1110,
|
|
11,
|
|
1110,
|
|
11,
|
|
4440,//74
|
|
|
|
#GOGOEND
|
|
3100,
|
|
3100,
|
|
3100,
|
|
3110,
|
|
3111,
|
|
3111,
|
|
3111,
|
|
3111,
|
|
3,
|
|
3,
|
|
,
|
|
,
|
|
,
|
|
#END |