Files
TJA-by-song-no/tja/407.tja
2026-03-04 23:59:27 +09:00

427 lines
5.1 KiB
Plaintext
Raw Permalink Blame History

This file contains ambiguous Unicode characters
This file contains Unicode characters that might be confused with other characters. If you think that this is intentional, you can safely ignore this warning. Use the Escape button to reveal them.
//TJADB Project
TITLE:Wasabi Body Blow
TITLEJA:Wasabi Body Blow
SUBTITLE:--Takahiro Eguchi/TEKKEN 3D Prime Edition
SUBTITLEJA:「鉄拳3D プライムエディション」より
BPM:180
WAVE:Wasabi Body Blow.ogg
OFFSET:-1.693
DEMOSTART:65.029
COURSE:Oni
LEVEL:9
SCOREINIT:300
SCOREDIFF:80
#START
2111202111202111,
2021112030004000,
2111202111202111,
2021112040004000,
1002001011102010,
1002001011102000,
1002001011102010,
1002001012221222,
1011201110112011,
1011201110112020,
2222112211221122,
1022100022202000,
1022101110221011,
1022101110111010,
1111221122112211,
1022100022221000,
1022102010221011,
1022102010221011,
1022102010221011,
1020111020201111,
2020111020201111,
2020111110102000,
1011102022111020,
1011102022101111,
1022102010221011,
1022102010221011,
1022102010221011,
1020111020201111,
2020111020201111,
2020111110102000,
1011102022111020,
1011102030303030,
1011101110111011,
1011101110111022,
2011101110111022,
2011101110111022,
2011101110111011,
1111101110112210,
2011101110111011,
1011101110111110,
1101201101201120,
1101201101201120,
1101201101201120,
1101201101201120,
1101101101101110,
2202202202202220,
1011101020222020,
33303344,//48
#GOGOSTART
1022102010221020,
1011201010112010,
1111201111201011,
1111100030304040,
1022102010221020,
1011201010112010,
1111201111201022,
1111111110112022,
1011201022102010,
1011201022102010,
1111201111201011,
1111100030304040,
1022102010112210,
1011201011221020,
1111201111201011,
1111102222222020,
1011102011102011,
1020111020111020,
1022101022101022,
1010221010221010,
2011102011102011,
1020111020111010,
2011102011102011,
1020111030303030,//72
#GOGOEND
2111202111202111,
2021112030004000,
2111202111202111,
2021112040004000,
1002001011102010,
1002001011102000,
1002001011102010,
1002001012221222,
1011201110112011,
1011201110112020,
2222112211221122,
1022100022202000,
1022101110221011,
1022101110111010,
1111221122112211,
1022100022221000,
#END
COURSE:Hard
LEVEL:6
BALLOON:6,8
SCOREINIT:390
SCOREDIFF:90
#START
10211011,
01103040,
10211011,
01104040,
10211012,
02103030,
10211012,
000000200000100000000000500000000000000008000000,
1011100010111000,
1011100010111000,
1110200011102000,
1000200011102000,
1011100010111000,
1011100010111000,
1110200011102000,
1000200022222000,
10210122,
10210120,
10210122,
1010200011102000,
1010200011102000,
1010200011102000,
10120102,
0010001010111000,
10210122,
10210120,
10210122,
1010200011102000,
1010200011102000,
1010200011102000,
10120102,
01013333,
1011101110111000,
1011101110111000,
1011101110111000,
1011101110111000,
1011101110111000,
1011101110111000,
1011101110111000,
1011101110111000,
1000201011102000,
1000201011102020,
1000201011102000,
1000201011102020,
1000201011102000,
1000201011102020,
1011101020222020,
30303330,//48
#GOGOSTART
1110111011101000,
1110222011102000,
30030303,
0033,
1110111011101000,
1110222011102000,
30030407,
0008,
1011101010111000,
1011102010112000,
30030303,
0033,
1011101010111000,
1011201010112000,
30030407,
0008,
10110110,
11011011,
02202202,
20220220,
21021021,
02102101,
20120120,
12223333,//72
#GOGOEND
10211011,
01103040,
10211011,
01104040,
10211012,
02103030,
10211012,
000000200000100000000000500000000000000008000000,
1011100010111000,
1011100010111000,
1110200011102000,
1000200011102000,
1011100010111000,
1011100010111000,
1110200011102000,
1000200022222000,
,//575combo
,
,
#END
COURSE:Normal
LEVEL:4
BALLOON:8,8
SCOREINIT:650
SCOREDIFF:170
#START
10010010,
01003000,
10010010,
01004000,
10010010,
01003000,
10010010,
01004000,
1202,
1202,
1212,
1,
1202,
1202,
1212,
1,
11,
1110,
11,
1202,
1202,
1202,
11,
1110,
11,
1110,
11,
1202,
1202,
1202,
11,
1033,
1101,
1101,
1101,
1101,
1101,
1101,
1101,
1100,
2202,
2202,
2202,
2202,
2202,
2202,
2222,
3330,//48
#GOGOSTART
1120,
1120,
600000000000000000000000000000000000000000000008,
0033,
1120,
1120,
9009,
8,
1122,
1122,
600000000000000000000000000000000000000000000008,
0033,
1122,
1122,
9009,
8,
10010010,
01001001,
00200200,
20020020,
01001001,
00100100,
20020020,
02003030,//72
#GOGOEND
10010010,
01003000,
10010010,
01004000,
10010010,
01003000,
10010010,
01004000,
1202,
1202,
1212,
1,
1202,
1202,
1212,
1044,
,
,
,
#END
COURSE:Easy
LEVEL:3
BALLOON:5,5
SCOREINIT:550
SCOREDIFF:140
#START
1001,
03,
1001,
04,
1001,
03,
1001,
04,
1101,
1100,
1111,
1,
1101,
1100,
1111,
1,
11,
11,
11,
2200,
2200,
2200,
11,
1110,
11,
11,
11,
2200,
2200,
2200,
11,
13,
1100,
1100,
1100,
1100,
1100,
1100,
1100,
1100,
2200,
2200,
2200,
2200,
2200,
2200,
1111,
33,//48
#GOGOSTART
1110,
1110,
600000000000000000000000000000000000000000000008,
,
1110,
1110,
9009,
8,
12,
12,
600000000000000000000000000000000000000000000008,
,
12,
12,
9009,
8,
1110,
1110,
2220,
2220,
1110,
1110,
2220,
2233,//72
#GOGOEND
1001,
03,
1001,
04,
1001,
03,
1001,
04,
1101,
1100,
1111,
1,
1101,
1100,
1111,
1033,
,//178combo
,
,
#END