Files
TJA-by-song-no/tja/447.tja
2026-03-04 23:59:27 +09:00

480 lines
5.5 KiB
Plaintext

//TJADB Project
TITLE:White Rose Insanity
TITLEJA:White Rose Insanity
SUBTITLE:--Tatsh a.k.a. Zeami feat. Kyou (Insanity)
BPM:276
WAVE:White Rose Insanity.ogg
OFFSET:-1.888
DEMOSTART:80.139
COURSE:Edit
LEVEL:8
BALLOON:5
SCOREINIT:400
SCOREDIFF:110
#START
00221110,
#MEASURE 8/4
1020102101201021,
1020102101201121,
1020102101201021,
1020102212212211,
1020112010210121,
1020112210210121,
1020112010210121,
1020112210210121,
1020112010210121,
1020112210210121,
1020112010210121,
1020112211010122,
1001201010012010,
1001201010002111,
1020112010210120,
1020112011221122,
1001201010012010,
1001201022102111,
1020112010210120,
1020112011221122,
1020201011202010,
1000201010120210,
1020201011202010,
1000201010120210,
1020201011202010,
1000201010120210,
10211021,
1021021012221212,
#GOGOSTART
1020112010210120,
1020112010210120,
1120102011201020,
1021012011221212,
1020102110201120,
1020102110201120,
1021021012221020,
1021021012221212,
1020112010210120,
1020112010210120,
1120102011201020,
1021012011221212,
1020102110201120,
1020102110201120,
3001203001203040,
3011203012221212,
#GOGOEND
#MEASURE 4/4
#SCROLL 5.73
70000008,
#GOGOSTART
#MEASURE 8/4
#SCROLL 1
1020112011201220,
1020112010210120,
1020112011201220,
1020112011221122,
1020112011201220,
1020112010210120,
3004004030040040,
3022111030221110,
30033000,
1020112011201121,
#GOGOEND
1020112011201220,
1020112011201121,
1020112011201220,
1020112011201121,
1020112011201220,
1020112011221212,
1112112112111120,
1112112112111120,
000011100000000000000000,
#END
COURSE:Oni
LEVEL:7
BALLOON:8,8,4,4
SCOREINIT:550
SCOREDIFF:120
#START
#BARLINEOFF
,
#BARLINEON
#MEASURE 8/4
#SCROLL 0.5
1020102001201022,
1020102001201022,
1020102001201022,
7008,
1020111010210250,
0008,
1020111010210210,
5008,
1020111010210250,
0008,
1020111010210210,
7008,
1001001000112010,
1001001000112010,
1110102011101020,
1111107000008000,
1001001000112010,
1001001000112010,
1110102011101020,
1111107000008000,
1110201011102010,
1110201010120210,
1110201011102010,
1110201010112000,
1110201011102010,
1110201010120210,
1110201110201120,
3003003030000000,
#GOGOSTART
#SCROLL 0.65
1020112010210120,
1020112010210120,
1020112011111020,
1020112011111120,
1020102101201120,
1020102101201120,
3003003060000000,
0000000080001111,
1020112010210120,
1020112010210120,
1020112011111020,
1020112011111120,
1020102101201120,
1020102101201120,
30330336,
000000000000000000000000000000000000000000000008,
#GOGOEND
#MEASURE 4/4
#SCROLL 2.865
,
#GOGOSTART
#MEASURE 8/4
#SCROLL 0.75
12221222,
1020112010201120,
12221222,
1120112030403040,
12221222,
1020112010201120,
3003003040040040,
3003003060000000,
0008,
#GOGOEND
1020112011201111,
1020112011201120,
1020112011201111,
1020112011201120,
1020112011201111,
1020112011201120,
1020112011111120,
3004003004001120,
3004003004001120,
0300,
#END
COURSE:Hard
LEVEL:6
BALLOON:6,4,4,19,8,8
SCOREINIT:710
SCOREDIFF:183
#START
#BARLINEOFF
,
#MEASURE 8/4
#BARLINEON
#SCROLL 0.5
1002002000202011,
1002002000202011,
1002002000202011,
70000800,
3000400010010050,
0000000008000000,
3000400010010010,
5000000008000000,
3000400010010050,
0000000008000000,
3000400030030030,
6000000008000000,
1001001000202010,
1001001000222020,
11111111,
11170080,
1001001000202010,
1001001000222020,
11111111,
11170080,
10022010,
10022010,
10022050,
0000000800000000,
10012010,
10012010,
10030030,
3003003030000000,
#GOGOSTART
#SCROLL 0.6
1020102010201011,
12121210,
1020102010201011,
12121220,
1020102010201011,
12121210,
3003003060000000,
0000000800000000,
1020102010201011,
12121210,
1020102010201011,
12121220,
1020102010201011,
12121210,
30030036,
000000000000000000000000000000000000000000000008,
#GOGOEND
#SCROLL 2.865
#MEASURE 4/4
,
#MEASURE 8/4
#GOGOSTART
#SCROLL 0.65
01111111,
22220222,
01111111,
02224444,
01111111,
22222222,
3434,
3003003090000000,
,
#GOGOEND
8,
11111111,
1010105000080000,
1010111020202220,
1010111000202000,
11111111,
1010105000080000,
7008,
7008,
0300,
#END
COURSE:Normal
LEVEL:6
BALLOON:5,15,6,6
SCOREINIT:810
SCOREDIFF:235
#START
#BARLINEOFF
,
#MEASURE 8/4
#BARLINEON
#SCROLL 0.5
1212,
1212,
1212,
70000800,
30001110,
5000000008000000,
30001110,
5000000008000000,
30001110,
5000000008000000,
3033,
6000000008000000,
10011000,
10011000,
22202220,
22200000,
10011000,
10011000,
22202220,
22200000,
10022000,
10022010,
10022050,
0000000800000000,
10022000,
10022010,
1033,
6000000800000000,
#GOGOSTART
#SCROLL 0.6
11101010,
11101010,
22202020,
22201000,
11102020,
11102020,
3360,
0000000800000000,
11101010,
11101010,
22202020,
22201000,
11102020,
11102020,
3033,
600000000000000000000000000000000000000000000008,
#GOGOEND
#SCROLL 2.865
#MEASURE 4/4
,
#GOGOSTART
#MEASURE 8/4
#SCROLL 0.65
11101110,
11102020,
11101110,
11104040,
11102220,
11102220,
33,
3390,
,
#GOGOEND
8,
10101110,
11100000,
20202220,
22200000,
10101110,
3330,
7008,
7008,
0300,
#END
COURSE:Easy
LEVEL:5
BALLOON:4,12,5,5
SCOREINIT:710
SCOREDIFF:233
#START
#BARLINEOFF
,
#MEASURE 8/4
#BARLINEON
#SCROLL 0.5
12,
12,
12,
70000800,
1011,
5000000008000000,
1011,
5000000008000000,
1011,
5000000008000000,
3033,
6000000008000000,
1110,
1110,
2222,
2200,
1110,
1110,
2222,
2200,
12,
1011,
1025,
0000000800000000,
12,
1011,
1033,
6000000800000000,
#GOGOSTART
#SCROLL 0.6
1110,
1110,
11101000,
11101000,
1120,
1120,
1150,
0000000800000000,
1110,
1110,
11101000,
11101000,
1120,
1120,
1033,
600000000000000000000000000000000000000000000008,
#GOGOEND
#SCROLL 2.865
#MEASURE 4/4
,
#MEASURE 8/4
#GOGOSTART
#SCROLL 0.65
11101010,
1120,
11101010,
1120,
11101010,
11102000,
33,
3390,
,
#GOGOEND
8,
1110,
1100,
2220,
2200,
1110,
3330,
7008,
7008,
0300,
#END