453 lines
4.5 KiB
Plaintext
453 lines
4.5 KiB
Plaintext
//TJADB Project
|
|
TITLE:Dun Aonghasa no Fuefuki
|
|
TITLEJA:ドン・エンガスの笛吹き
|
|
SUBTITLE:--YMY
|
|
BPM:118
|
|
OFFSET:-6.207
|
|
WAVE:Dun Aonghasa no Fuefuki.ogg
|
|
DEMOSTART:12.033
|
|
|
|
COURSE:Oni
|
|
LEVEL:8
|
|
SCOREINIT:600
|
|
SCOREDIFF:160
|
|
|
|
|
|
#START
|
|
|
|
|
|
#MEASURE 3/4
|
|
300000000000000111,
|
|
100000002012,
|
|
100000000000200111,
|
|
100201101000,
|
|
101201101020,
|
|
101201101020,
|
|
101201101020,
|
|
101201102210,
|
|
101201101020,
|
|
101201101020,
|
|
101201101020,
|
|
101201102211,
|
|
101201201020,
|
|
101201201120,
|
|
101201201020,
|
|
101201202220,
|
|
101201201020,
|
|
101201201120,
|
|
101201201020,
|
|
101201101111,
|
|
101201201020,
|
|
101201201120,
|
|
101201201020,
|
|
101201202220,
|
|
101201201020,
|
|
101201201120,
|
|
101201201020,
|
|
100000100200000100200200100000101010,
|
|
101201101020,
|
|
101201101020,
|
|
101201101020,
|
|
101201102210,
|
|
101201101020,
|
|
101201101020,
|
|
101201101020,
|
|
100000100200000100100000202020101010,
|
|
#MEASURE 5/8
|
|
1120102101,
|
|
#MEASURE 3/4
|
|
210210210120,
|
|
#MEASURE 5/8
|
|
1120102101,
|
|
#MEASURE 3/4
|
|
210210210120,
|
|
#MEASURE 5/8
|
|
1120102101,
|
|
#MEASURE 3/4
|
|
210210210120,
|
|
#MEASURE 5/8
|
|
1120102101,
|
|
#MEASURE 3/4
|
|
210210210120,
|
|
#MEASURE 5/8
|
|
1120102101,
|
|
#MEASURE 3/4
|
|
210210210120,
|
|
#MEASURE 5/8
|
|
1120102101,
|
|
#MEASURE 3/4
|
|
210210210120,
|
|
#MEASURE 5/8
|
|
2112112211,
|
|
#MEASURE 3/4
|
|
222210012212,
|
|
#MEASURE 5/8
|
|
1221201221,
|
|
#MEASURE 3/4
|
|
200112,
|
|
#MEASURE 5/8
|
|
2000000022,
|
|
#MEASURE 3/4
|
|
100000100120,
|
|
211211212211,
|
|
500000000000000000000008000000000000,//58
|
|
|
|
#GOGOSTART
|
|
101201201020,
|
|
120201120120,
|
|
101201201020,
|
|
120201120120,
|
|
101201201020,
|
|
101201201020,
|
|
101201201120,
|
|
100000000200000000202020100100100000,
|
|
101201101020,
|
|
101201101020,
|
|
101201101020,
|
|
101201102210,
|
|
101201101020,
|
|
101201101020,
|
|
101201101020,
|
|
100000100200000100100000202020101010,
|
|
101201101120,//75
|
|
|
|
#GOGOEND
|
|
101201101120,
|
|
122122122122,
|
|
1,
|
|
|
|
|
|
#END
|
|
|
|
|
|
COURSE:Hard
|
|
LEVEL:7
|
|
SCOREINIT:720
|
|
SCOREDIFF:210
|
|
|
|
#START
|
|
#MEASURE 3/4
|
|
,
|
|
,
|
|
3,
|
|
1,
|
|
300021,
|
|
111100101000,
|
|
100201101010,
|
|
100201101010,
|
|
100201101010,
|
|
100201102000,
|
|
100201101010,
|
|
100201101010,
|
|
100201101010,
|
|
100201102000,
|
|
100100201010,
|
|
100100201000,
|
|
100100201010,
|
|
100100201110,
|
|
100100201010,
|
|
100100201000,
|
|
100100201010,
|
|
100100202220,
|
|
100100201011,
|
|
100100201011,
|
|
100100201011,
|
|
100100201000,
|
|
100100201110,
|
|
100100201110,
|
|
101110100000,
|
|
101110101000,
|
|
100201101010,
|
|
100201101010,
|
|
100201101010,
|
|
100201102000,
|
|
100201101010,
|
|
100201101010,
|
|
100201101010,
|
|
100110,
|
|
#MEASURE 5/8
|
|
1101102000,
|
|
#MEASURE 3/4
|
|
110110200000,
|
|
#MEASURE 5/8
|
|
1101102000,
|
|
#MEASURE 3/4
|
|
110110200000,
|
|
#MEASURE 5/8
|
|
1101101001,
|
|
#MEASURE 3/4
|
|
110110200000,
|
|
#MEASURE 5/8
|
|
1101101001,
|
|
#MEASURE 3/4
|
|
110110200000,
|
|
#MEASURE 5/8
|
|
1101101001,
|
|
#MEASURE 3/4
|
|
110110200000,
|
|
#MEASURE 5/8
|
|
1101101001,
|
|
#MEASURE 3/4
|
|
110110200000,
|
|
#MEASURE 5/8
|
|
1011011000,
|
|
#MEASURE 3/4
|
|
111010000000,
|
|
#MEASURE 5/8
|
|
1001100010,
|
|
#MEASURE 3/4
|
|
100111,
|
|
#MEASURE 5/8
|
|
1000000011,
|
|
#MEASURE 3/4
|
|
100000100110,
|
|
211211,
|
|
500000000000000000000008000000000000,//58
|
|
|
|
#GOGOSTART
|
|
100100201010,
|
|
100100201000,
|
|
100100201010,
|
|
100100201110,
|
|
100100201010,
|
|
100100201000,
|
|
100100201010,
|
|
500000000000000000000008000000000000,
|
|
100220101020,
|
|
100220101020,
|
|
100220101020,
|
|
100220102000,
|
|
100220101020,
|
|
100220101020,
|
|
100220101020,
|
|
100110,
|
|
3,//75
|
|
|
|
#GOGOEND
|
|
3,
|
|
122012201010,
|
|
3,
|
|
,
|
|
#END
|
|
|
|
COURSE:Normal
|
|
LEVEL:6
|
|
SCOREINIT:980
|
|
SCOREDIFF:365
|
|
|
|
#START
|
|
#MEASURE 3/4
|
|
,
|
|
,
|
|
3,
|
|
1,
|
|
3,
|
|
100110,
|
|
1110,
|
|
1110,
|
|
1110,
|
|
1,
|
|
1110,
|
|
1110,
|
|
1110,
|
|
1,
|
|
111000,
|
|
111000,
|
|
111100,
|
|
,
|
|
111000,
|
|
111000,
|
|
111100,
|
|
,
|
|
111000,
|
|
111000,
|
|
111100,
|
|
,
|
|
111000,
|
|
111000,
|
|
111100,
|
|
111100,
|
|
1110,
|
|
1110,
|
|
1110,
|
|
1,
|
|
1110,
|
|
1110,
|
|
1110,
|
|
1,
|
|
#MEASURE 5/8
|
|
10001,
|
|
#MEASURE 3/4
|
|
100001,
|
|
#MEASURE 5/8
|
|
10001,
|
|
#MEASURE 3/4
|
|
100001,
|
|
#MEASURE 5/8
|
|
10001,
|
|
#MEASURE 3/4
|
|
100001,
|
|
#MEASURE 5/8
|
|
20001,
|
|
#MEASURE 3/4
|
|
200001,
|
|
#MEASURE 5/8
|
|
10001,
|
|
#MEASURE 3/4
|
|
100001,
|
|
#MEASURE 5/8
|
|
2,
|
|
#MEASURE 3/4
|
|
3,
|
|
#MEASURE 5/8
|
|
1110001000,
|
|
#MEASURE 3/4
|
|
111000000000,
|
|
#MEASURE 5/8
|
|
2220002000,
|
|
#MEASURE 3/4
|
|
222000000000,
|
|
#MEASURE 5/8
|
|
1110002000,
|
|
#MEASURE 3/4
|
|
111000200000,
|
|
110220,
|
|
500000000000000000000008000000000000,//58
|
|
|
|
#GOGOSTART
|
|
112000,
|
|
112000,
|
|
112000,
|
|
111100,
|
|
112000,
|
|
112000,
|
|
112000,
|
|
111300,
|
|
1120,
|
|
1120,
|
|
1120,
|
|
111100,
|
|
1120,
|
|
1120,
|
|
1120,
|
|
111100,
|
|
3,//75
|
|
|
|
#GOGOEND
|
|
3,
|
|
111110,
|
|
3,
|
|
,
|
|
#END
|
|
|
|
COURSE:Easy
|
|
LEVEL:4
|
|
SCOREINIT:1100
|
|
SCOREDIFF:755
|
|
|
|
#START
|
|
#MEASURE 3/4
|
|
,
|
|
,
|
|
3,
|
|
,
|
|
3,
|
|
,
|
|
1,
|
|
000101,
|
|
11,
|
|
0,
|
|
1,
|
|
000101,
|
|
11,
|
|
0,
|
|
100101,
|
|
1,
|
|
100101,
|
|
1,
|
|
100101,
|
|
1,
|
|
11,
|
|
1,
|
|
100101,
|
|
1,
|
|
100101,
|
|
1,
|
|
100101,
|
|
11,
|
|
1,
|
|
1,
|
|
1,
|
|
000101,
|
|
11,
|
|
0,
|
|
1,
|
|
01,
|
|
11,
|
|
0,
|
|
#MEASURE 5/8
|
|
1,
|
|
#MEASURE 3/4
|
|
2,
|
|
#MEASURE 5/8
|
|
1,
|
|
#MEASURE 3/4
|
|
2,
|
|
#MEASURE 5/8
|
|
1,
|
|
#MEASURE 3/4
|
|
1,
|
|
#MEASURE 5/8
|
|
2,
|
|
#MEASURE 3/4
|
|
2,
|
|
#MEASURE 5/8
|
|
1,
|
|
#MEASURE 3/4
|
|
1,
|
|
#MEASURE 5/8
|
|
2,
|
|
#MEASURE 3/4
|
|
2,
|
|
#MEASURE 5/8
|
|
1,
|
|
#MEASURE 3/4
|
|
2,
|
|
#MEASURE 5/8
|
|
1,
|
|
#MEASURE 3/4
|
|
2,
|
|
#MEASURE 5/8
|
|
1,
|
|
#MEASURE 3/4
|
|
2,
|
|
1,
|
|
2,//58
|
|
|
|
#GOGOSTART
|
|
100201,
|
|
1,
|
|
100201,
|
|
1,
|
|
12,
|
|
12,
|
|
1,
|
|
101100,
|
|
1,
|
|
000101,
|
|
11,
|
|
,
|
|
1,
|
|
000101,
|
|
11,
|
|
,
|
|
1,//75
|
|
|
|
#GOGOEND
|
|
1,
|
|
1,
|
|
3,
|
|
,
|
|
#END
|
|
|