535 lines
7.7 KiB
Plaintext
535 lines
7.7 KiB
Plaintext
//TJADB Project
|
|
TITLE:Zero no Nocturne
|
|
TITLEJA:零の夜想曲
|
|
SUBTITLE:--Kyo feat. Sariyajin
|
|
BPM:150
|
|
WAVE:Zero no Nocturne.ogg
|
|
OFFSET:-1.804
|
|
DEMOSTART:58.395
|
|
|
|
COURSE:Edit
|
|
LEVEL:9
|
|
SCOREINIT:340
|
|
SCOREDIFF:90
|
|
|
|
|
|
#START
|
|
|
|
|
|
1010201101102011,
|
|
1010201101102210,
|
|
#BPMCHANGE 150.47
|
|
1010201111111122,
|
|
#BPMCHANGE 150
|
|
1003003000000000,
|
|
1010201102102011,
|
|
1010201102102022,
|
|
1010201102102011,
|
|
1010201102102022,
|
|
1001201102102011,
|
|
1001201102102022,
|
|
1001201110002000,
|
|
100000000000200000101010100000400000000000100100,
|
|
1010201100002010,
|
|
1001001000102011,
|
|
1010201100002010,
|
|
1001001000102011,
|
|
1001201000102010,
|
|
1001201000102010,
|
|
1001201000102010,
|
|
3003003000400022,
|
|
1010201102102011,
|
|
1001201001202011,
|
|
1010201102102011,
|
|
1001201001202011,
|
|
1001201102102022,
|
|
1001201102102022,
|
|
1001201102112010,
|
|
1011022020102210,
|
|
2110102110102110,
|
|
2211102211102210,
|
|
2110102110102110,
|
|
2211102211102210,
|
|
1001201101202222,
|
|
1001201101202030,
|
|
0000112000400400,
|
|
4000201200400000,//36
|
|
|
|
#GOGOSTART
|
|
3011201202112012,
|
|
1011201202112022,
|
|
1011201202112012,
|
|
1011201202112222,
|
|
1011210202112022,
|
|
1011210202112040,
|
|
0011204000112040,
|
|
000000101010100000000000300000400000000400000000,
|
|
3011201202112012,
|
|
1011201202112022,
|
|
1011201202112012,
|
|
1011201202112222,
|
|
1011210202112022,
|
|
1011210202112010,
|
|
2212112122121120,
|
|
0010111020102110,//52
|
|
|
|
#GOGOEND
|
|
1202,
|
|
0202,
|
|
0202,
|
|
0202,
|
|
2211112221112211,
|
|
2211122211122011,
|
|
2211122211122211,
|
|
500000000008000000000000400000000400000000400000,//83
|
|
|
|
#GOGOSTART
|
|
3011211202112012,
|
|
1011211202112022,
|
|
1011211202112012,
|
|
1011211202112222,
|
|
1011210202112022,
|
|
1011210202112040,
|
|
0011204000112040,
|
|
000000101010100000000000300000400000000400000000,
|
|
3011211202112012,
|
|
1011211202112022,
|
|
1011211202112012,
|
|
1011211202112222,
|
|
1011210202112022,
|
|
1011210202112010,
|
|
2212112122121120,
|
|
00040000,//76
|
|
|
|
#GOGOEND
|
|
3010201102102011,
|
|
1010201102102022,
|
|
1010201102102011,
|
|
1010201102102222,
|
|
1001201102102022,
|
|
1001201102102222,
|
|
100000200200200000300000200200200000101010200000,
|
|
|
|
|
|
#END
|
|
|
|
|
|
COURSE:Oni
|
|
LEVEL:8
|
|
BALLOON:16,6,6,6
|
|
SCOREINIT:440
|
|
SCOREDIFF:100
|
|
|
|
|
|
#START
|
|
|
|
|
|
1000100010001011,
|
|
1000100010001011,
|
|
#BPMCHANGE 150.47
|
|
1000101110111110,
|
|
#BPMCHANGE 150
|
|
4004004030030030,
|
|
500000000008000000500000000008000000200000500000,
|
|
000000000008000000100100200000000200000000200000,
|
|
500000000008000000500000000008000000200000500000,
|
|
000000000000000000000000000000000000000008000000,
|
|
200000000200000000500008000000200000200000500000,
|
|
000000000008000000200200100000000100000000100000,
|
|
500000000008000000200200500000000000000008000000,
|
|
4000101110400010,
|
|
1010200100102000,
|
|
1001001000112010,
|
|
1010200100102000,
|
|
1001001000112010,
|
|
1001001110202010,
|
|
1001001110202010,
|
|
1001001110202010,
|
|
3003003000400010,
|
|
1010200100102010,
|
|
1001001000112010,
|
|
1010200100102010,
|
|
1001001000112010,
|
|
1001001110202010,
|
|
1001001110202010,
|
|
1001001110202010,
|
|
1000101110222010,
|
|
2010201110102010,
|
|
2010201110222010,
|
|
2010201110102010,
|
|
2010201110222010,
|
|
1001001000222010,
|
|
1001001000222070,
|
|
,
|
|
8000003030220040,//36
|
|
|
|
#GOGOSTART
|
|
1110101110101110,
|
|
1110101111102011,
|
|
1110101110101110,
|
|
1110101111102011,
|
|
1110101110202011,
|
|
1110101110202030,
|
|
0020203000202070,
|
|
0000803030220040,
|
|
1110101110101110,
|
|
1110101111102011,
|
|
1110101110101110,
|
|
1110101111102011,
|
|
1110101111202011,
|
|
1110101111202050,
|
|
000000000000000000000000000000000008000000400000,
|
|
0000300030030030,//52
|
|
|
|
#GOGOEND
|
|
30020010,
|
|
10020011,
|
|
10020012,
|
|
01021201,
|
|
1110101111101011,
|
|
1110101111101022,
|
|
1110221110221221,
|
|
7000803030210120,//60
|
|
|
|
#GOGOSTART
|
|
1110101110101110,
|
|
1110101111102011,
|
|
1110101110101110,
|
|
1110101111102011,
|
|
1110201110202011,
|
|
1110201110202030,
|
|
02230227,
|
|
0000803030210120,
|
|
1110101110101110,
|
|
1110101111102011,
|
|
1110101110101110,
|
|
1110101111102011,
|
|
1110201111202011,
|
|
1110201111202050,
|
|
000000000000000000000000000000000008000000400000,
|
|
0000300030030030,
|
|
|
|
#GOGOEND
|
|
500000000008000000500000000008000000200000500000,
|
|
000000000008000000100100200000000200000000200000,
|
|
500000000008000000500000000008000000200000500000,
|
|
000000000000000000000000000000000000000008000000,
|
|
200000000200000000500008000000200000200000500000,
|
|
000000000008000000200200100000100100100100200000,
|
|
3011103011104040,
|
|
|
|
|
|
#END
|
|
|
|
|
|
COURSE:Hard
|
|
LEVEL:6
|
|
BALLOON:9,12,4,9,12
|
|
SCOREINIT:510
|
|
SCOREDIFF:128
|
|
|
|
#START
|
|
10101021,
|
|
10101021,
|
|
#BPMCHANGE 150.47
|
|
1000101110111000,
|
|
#BPMCHANGE 150
|
|
3003003000000000,
|
|
30210121,
|
|
0020201110020020,
|
|
10210121,
|
|
02201120,
|
|
2002001000202010,
|
|
0020201110020020,
|
|
1000001110000000,
|
|
40000400,
|
|
1010100200101000,
|
|
1001001000202000,
|
|
1010100200101000,
|
|
1001001000202000,
|
|
1001001000202000,
|
|
1001001000202000,
|
|
1001001000202000,
|
|
3003003000400000,
|
|
1010200100102000,
|
|
1001001000202000,
|
|
1010200100102000,
|
|
1001001000102000,
|
|
1001001000202000,
|
|
1001001000202000,
|
|
500000000000000000000000000000000000000000000008,
|
|
0000000011102000,
|
|
21120120,
|
|
21120120,
|
|
21120120,
|
|
2010102000112000,
|
|
1001001000202000,
|
|
1001001000202000,
|
|
500000000000000000000000000000000000000000000008,
|
|
,//36
|
|
|
|
#GOGOSTART
|
|
1110100010101000,
|
|
1110100010102000,
|
|
1110100010101000,
|
|
1110100010102000,
|
|
1110200011102000,
|
|
1110200011202030,
|
|
02230227,
|
|
0008,
|
|
1110100010101000,
|
|
1110100010102000,
|
|
1110100010101000,
|
|
1110100010102000,
|
|
1110200011102000,
|
|
1110200011202070,
|
|
,
|
|
8000400040040040,//52
|
|
|
|
#GOGOEND
|
|
4001,
|
|
10000011,
|
|
10000011,
|
|
10011200,
|
|
1110100011102000,
|
|
1110100011102050,
|
|
000000000000000000000000000000000008000000000000,
|
|
78,//60
|
|
|
|
#GOGOSTART
|
|
1110100010101000,
|
|
1110200010102000,
|
|
1110100010101000,
|
|
1110200010102000,
|
|
1110200011102000,
|
|
1110200011202030,
|
|
02230227,
|
|
0008,
|
|
1110100010101000,
|
|
1110200010102000,
|
|
1110100010101000,
|
|
1110200010102000,
|
|
1110200011102000,
|
|
1110200011202070,
|
|
,
|
|
8000300030030030,//76
|
|
|
|
#GOGOEND
|
|
30210121,
|
|
0020201110020020,
|
|
10210121,
|
|
02201120,
|
|
2002001000202010,
|
|
0020201110222000,
|
|
30030044,
|
|
,
|
|
,
|
|
#END
|
|
|
|
COURSE:Normal
|
|
LEVEL:6
|
|
BALLOON:7,5,7
|
|
SCOREINIT:600
|
|
SCOREDIFF:163
|
|
|
|
#START
|
|
11,
|
|
11,
|
|
#BPMCHANGE 150.47
|
|
1111,
|
|
#BPMCHANGE 150
|
|
3003003000000000,
|
|
30010011,
|
|
0202,
|
|
10010011,
|
|
0202,
|
|
1001001000002000,
|
|
10011020,
|
|
10011000,
|
|
30000300,
|
|
11100020,
|
|
1001001000000000,
|
|
11100020,
|
|
1001001000002000,
|
|
1001001000000000,
|
|
1001001000002000,
|
|
1001001000000000,
|
|
3003003000400000,
|
|
11100020,
|
|
1001001000002000,
|
|
11100020,
|
|
1001001000002000,
|
|
1001001000002000,
|
|
1001001000002000,
|
|
500000000000000000000000000000000000000000000008,
|
|
0022,
|
|
10011020,
|
|
10011020,
|
|
10011020,
|
|
1022,
|
|
1001001000000000,
|
|
1001001000000060,
|
|
000000000000000000000000000000000000000000000008,
|
|
,//36
|
|
|
|
#GOGOSTART
|
|
11101110,
|
|
11111020,
|
|
11101110,
|
|
11102000,
|
|
11101110,
|
|
11101113,
|
|
01130117,
|
|
0008,
|
|
11101110,
|
|
11111020,
|
|
11101110,
|
|
11102025,
|
|
000000000000000000000008000000000000000000000000,
|
|
11101115,
|
|
000000000000000000000000000000000000000008000000,
|
|
0440,//52
|
|
|
|
#GOGOEND
|
|
3001,
|
|
10000011,
|
|
10000011,
|
|
1012,
|
|
11201110,
|
|
11201115,
|
|
000000000000000000000000000000000008000000000000,
|
|
7008,//60
|
|
|
|
#GOGOSTART
|
|
11102220,
|
|
11111020,
|
|
11102220,
|
|
11102000,
|
|
11102220,
|
|
11101113,
|
|
01130117,
|
|
0008,
|
|
11102220,
|
|
11111020,
|
|
11102220,
|
|
11102025,
|
|
000000000000000000000008000000000000000000000000,
|
|
11101115,
|
|
000000000000000000000000000000000000000008000000,
|
|
0440,//76
|
|
|
|
#GOGOEND
|
|
30010011,
|
|
0202,
|
|
10010011,
|
|
0202,
|
|
1001001000002000,
|
|
10011020,
|
|
30030033,
|
|
,
|
|
,
|
|
#END
|
|
|
|
COURSE:Easy
|
|
LEVEL:4
|
|
BALLOON:3
|
|
SCOREINIT:520
|
|
SCOREDIFF:163
|
|
|
|
#START
|
|
1,
|
|
1,
|
|
#BPMCHANGE 150.47
|
|
1011,
|
|
#BPMCHANGE 150
|
|
30030000,
|
|
31,
|
|
1011,
|
|
11,
|
|
1,
|
|
11,
|
|
2220,
|
|
11,
|
|
30000300,
|
|
1100,
|
|
1100,
|
|
1100,
|
|
1100,
|
|
11,
|
|
1110,
|
|
1,
|
|
30000300,
|
|
1102,
|
|
1100,
|
|
1102,
|
|
1100,
|
|
11,
|
|
1110,
|
|
500000000000000000000000000000000000000000000008,
|
|
0011,
|
|
12,
|
|
1011,
|
|
12,
|
|
1011,
|
|
11,
|
|
20200006,
|
|
000000000000000000000000000000000000000000000008,
|
|
,//36
|
|
|
|
#GOGOSTART
|
|
1110,
|
|
10111000,
|
|
1110,
|
|
10111000,
|
|
1101,
|
|
00100113,
|
|
01130113,
|
|
,
|
|
1110,
|
|
10111000,
|
|
1110,
|
|
10111005,
|
|
000000000000000000000008000000000000000000000000,
|
|
10101005,
|
|
000000000000000000000000000000000000000008000000,
|
|
0440,//52
|
|
|
|
#GOGOEND
|
|
3001,
|
|
1001,
|
|
1001,
|
|
1,
|
|
1210,
|
|
10201005,
|
|
000000000000000000000000000000000008000000000000,
|
|
7008,//60
|
|
|
|
#GOGOSTART
|
|
1110,
|
|
10111000,
|
|
1110,
|
|
10111000,
|
|
1101,
|
|
00100113,
|
|
01130113,
|
|
,
|
|
1110,
|
|
10111000,
|
|
1110,
|
|
10111005,
|
|
000000000000000000000008000000000000000000000000,
|
|
10100005,
|
|
000000000000000000000000000000000000000008000000,
|
|
0440,//76
|
|
|
|
#GOGOEND
|
|
11,
|
|
1011,
|
|
11,
|
|
1,
|
|
11,
|
|
2220,
|
|
30030033,
|
|
,
|
|
,
|
|
#END |