Files
TJA-by-song-no/tja/541.tja
2026-03-04 23:59:27 +09:00

886 lines
10 KiB
Plaintext

//TJADB Project
TITLE:Honnouji no Hen
TITLEJA:本能寺の変
SUBTITLE:--EGU-SPLOSION
SUBTITLEJA:エグスプロージョン
BPM:220.65
WAVE:Honnouji no Hen.ogg
OFFSET:-1.709
DEMOSTART:1.709
//Shinuchi 6070/4730/2410/1910
COURSE:Oni
LEVEL:8
BALLOON:10,6,6,4,4
SCOREINIT:660,2100
SCOREDIFF:173
#START
#SCROLL 0.97
0,
#BPMCHANGE 212.43
#SCROLL 1.01
0,
#BPMCHANGE 220.27
#SCROLL 0.98
10101112,
#BPMCHANGE 213.6
#SCROLL 1.01
0020002000222000, //4
#BPMCHANGE 218.92
#SCROLL 0.98
10101212,
#BPMCHANGE 214.61
#SCROLL 1
0020002000222000,
#BPMCHANGE 213.66
#SCROLL 1.01
33,
#BPMCHANGE 217.17
#SCROLL 0.99
3334, //8
#BPMCHANGE 216.23
#SCROLL 1
10111120,
11221120,
#BPMCHANGE 218.78
#SCROLL 0.98
12121020,
#BPMCHANGE 213.75
#SCROLL 1.01
12021220, //12
#BPMCHANGE 216.23
#SCROLL 1
10101110,
#BPMCHANGE 217.46
#SCROLL 0.99
12021120,
#BPMCHANGE 216.23
#SCROLL 1
2222,
#BPMCHANGE 213.87
#SCROLL 1.01
20444000, //16
#BPMCHANGE 218.32
#SCROLL 0.99
1000201000201110,
#BPMCHANGE 216.56
1000201000201110,
#BPMCHANGE 216.24
10212210,
#BPMCHANGE 215.02
#SCROLL 1
7008, //20
#BPMCHANGE 216.23
10112020,
1122,
10112020,
1010201020222000, //24
1022201022201000,
#BPMCHANGE 217.93
#SCROLL 0.99
1022201022201000,
#BPMCHANGE 216.16
#SCROLL 1
2222,
#BPMCHANGE 211.6
#SCROLL 1.02
2330, //28
#BPMCHANGE 219.41
#SCROLL 0.98
1000201000201110,
#BPMCHANGE 219.61
1000201000201110,
#BPMCHANGE 214.98
#SCROLL 1
10210210,
#BPMCHANGE 214.19
1011101020004000, //32
#BPMCHANGE 216.23
12021222,
12021222,
12021222,
1011101020002000, //36
1022201022201020,
#BPMCHANGE 220.68
#SCROLL 0.97
1022201022201020,
#BPMCHANGE 214.22
#SCROLL 1
10111010,
#BPMCHANGE 216.32
#SCROLL 0.99
0440, //40
#BPMCHANGE 215.19
#SCROLL 1
1000201000201110,
#BPMCHANGE 218.1
#SCROLL 0.99
1000201000201110,
#BPMCHANGE 214.65
#SCROLL 1
1000201000222020,
11212030, //44
#BPMCHANGE 216.23
10111212,
11121220,
10111222,
1000101010222000, //48
01112102,
#BPMCHANGE 217.45
#SCROLL 0.99
0020002010222020,
#BPMCHANGE 216.23
#SCROLL 1
0010101010222020,
40404002, //52
1000201000222000,
1000201000222000,
1010202010222020,
1000201000222000, //56
1022201022201000,
1022201022201000,
1010202010222020,
1022201000000000, //60
500000000000000000000008000000000000200000000000,
700000000000000000000000080000000000200000000000,
500000000000000000000008000000000000200000000000,
700000000000000000000000080000000000200000000000, //64
500000000008000000000000700000000000800000000000,
500000000008000000000000700000000000800000000000,
3434,
#BPMCHANGE 215.03
500000000000000000000000000000000008000000000000, //68
#BPMCHANGE 219.4
#SCROLL 0.98
#GOGOSTART
10101112,
#BPMCHANGE 213.24
#SCROLL 1.01
0020002000222000,
#BPMCHANGE 220.65
#SCROLL 0.97
10101112,
#BPMCHANGE 211.98
#SCROLL 1.02
0020002000222000, //72
#BPMCHANGE 220.65
#SCROLL 0.97
10101112,
#BPMCHANGE 214.61
#SCROLL 1
0020002000222000,
#BPMCHANGE 213.66
#SCROLL 1.01
30223022,
#BPMCHANGE 212.29
3330, //76
#BPMCHANGE 223.25
#SCROLL 0.96
1022201020101020,
#BPMCHANGE 214.49
#SCROLL 1
0020102000222020,
#BPMCHANGE 218.18
#SCROLL 0.99
1022201020101020,
#BPMCHANGE 217.03
0020102000222020, //80
#BPMCHANGE 215.61
#SCROLL 1
1022201020101020,
#BPMCHANGE 217.31
#SCROLL 0.99
0020102000222020,
#BPMCHANGE 213.18
#SCROLL 1.01
30223022,
#BPMCHANGE 217.74
#SCROLL 0.99
3330, //84
#GOGOEND
#BPMCHANGE 208.77
#SCROLL 1.03
1022102010004000,
0,
0, //87
#END
COURSE:Hard
LEVEL:6
BALLOON:5,5,3,3
SCOREINIT:630,2670
SCOREDIFF:173
#START
#SCROLL 0.97
0,
#BPMCHANGE 212.43
#SCROLL 1.01
0,
#BPMCHANGE 220.27
#SCROLL 0.98
10101112,
#BPMCHANGE 213.6
#SCROLL 1.01
00020220, //4
#BPMCHANGE 218.92
#SCROLL 0.98
10101212,
#BPMCHANGE 214.61
#SCROLL 1
00020220,
#BPMCHANGE 213.66
#SCROLL 1.01
33,
#BPMCHANGE 217.17
#SCROLL 0.99
3334, //8
#BPMCHANGE 216.23
#SCROLL 1
10001110,
11201120,
#BPMCHANGE 218.78
#SCROLL 0.98
1112,
#BPMCHANGE 213.75
#SCROLL 1.01
11011120, //12
#BPMCHANGE 216.23
#SCROLL 1
1111,
#BPMCHANGE 217.46
#SCROLL 0.99
11011120,
#BPMCHANGE 216.23
#SCROLL 1
1111,
#BPMCHANGE 213.87
#SCROLL 1.01
10444000, //16
#BPMCHANGE 218.32
#SCROLL 0.99
10010220,
#BPMCHANGE 216.56
10010220,
#BPMCHANGE 216.24
10110110,
#BPMCHANGE 215.02
#SCROLL 1
10112040, //20
#BPMCHANGE 216.23
10111020,
10111020,
10111020,
11212000, //24
10110220,
#BPMCHANGE 217.93
#SCROLL 0.99
10110220,
#BPMCHANGE 216.16
#SCROLL 1
2222,
#BPMCHANGE 211.6
#SCROLL 1.02
2330, //28
#BPMCHANGE 219.41
#SCROLL 0.98
10210220,
#BPMCHANGE 219.61
10210220,
#BPMCHANGE 214.98
#SCROLL 1
10210210,
#BPMCHANGE 214.19
11210040, //32
#BPMCHANGE 216.23
1122,
10221211,
10101110,
11212000, //36
10111020,
#BPMCHANGE 220.68
#SCROLL 0.97
11221211,
#BPMCHANGE 214.22
#SCROLL 1
10111010,
#BPMCHANGE 216.32
#SCROLL 0.99
0440, //40
#BPMCHANGE 215.19
#SCROLL 1
10010220,
#BPMCHANGE 218.1
#SCROLL 0.99
10010220,
#BPMCHANGE 214.65
#SCROLL 1
10121122,
11211040, //44
#BPMCHANGE 216.23
10111212,
11121010,
10111222,
10111120, //48
01112102,
#BPMCHANGE 217.45
#SCROLL 0.99
02021012,
#BPMCHANGE 216.23
#SCROLL 1
01111010,
2220, //52
10210220,
10210220,
11221120,
10220000, //56
10110220,
10110220,
11221120,
10110000, //60
500000000000000000000008000000000000200000000000,
700000000000000000000000080000000000200000000000,
500000000000000000000008000000000000200000000000,
700000000000000000000000080000000000200000000000, //64
500000000008000000000000700000000000800000000000,
500000000008000000000000700000000000800000000000,
3434,
#BPMCHANGE 215.03
500000000000000000000000000000000008000000000000, //68
#BPMCHANGE 219.4
#SCROLL 0.98
#GOGOSTART
10101112,
#BPMCHANGE 213.24
#SCROLL 1.01
02020220,
#BPMCHANGE 220.65
#SCROLL 0.97
10101211,
#BPMCHANGE 211.98
#SCROLL 1.02
02020220, //72
#BPMCHANGE 220.65
#SCROLL 0.97
10101212,
#BPMCHANGE 214.61
#SCROLL 1
02020220,
#BPMCHANGE 213.66
#SCROLL 1.01
33,
#BPMCHANGE 212.29
3330, //76
#BPMCHANGE 223.25
#SCROLL 0.96
10101112,
#BPMCHANGE 214.49
#SCROLL 1
02021221,
#BPMCHANGE 218.18
#SCROLL 0.99
10101211,
#BPMCHANGE 217.03
02021221, //80
#BPMCHANGE 215.61
#SCROLL 1
10101212,
#BPMCHANGE 217.31
#SCROLL 0.99
02021220,
#BPMCHANGE 213.18
#SCROLL 1.01
33,
#BPMCHANGE 217.74
#SCROLL 0.99
3330, //84
#GOGOEND
#BPMCHANGE 208.77
#SCROLL 1.03
11212040,
0,
0, //87
#END
COURSE:Normal
LEVEL:5
BALLOON:5,5,6
SCOREINIT:920,5450
SCOREDIFF:325
#START
#SCROLL 0.97
0,
#BPMCHANGE 212.43
#SCROLL 1.01
0,
#BPMCHANGE 220.27
#SCROLL 0.98
1011,
#BPMCHANGE 213.6
#SCROLL 1.01
0002, //4
#BPMCHANGE 218.92
#SCROLL 0.98
1011,
#BPMCHANGE 214.61
#SCROLL 1
0002,
#BPMCHANGE 213.66
#SCROLL 1.01
33,
#BPMCHANGE 217.17
#SCROLL 0.99
3330, //8
#BPMCHANGE 216.23
#SCROLL 1
11,
1120,
#BPMCHANGE 218.78
#SCROLL 0.98
11,
#BPMCHANGE 213.75
#SCROLL 1.01
1120, //12
#BPMCHANGE 216.23
#SCROLL 1
12,
#BPMCHANGE 217.46
#SCROLL 0.99
12,
#BPMCHANGE 216.23
#SCROLL 1
1111,
#BPMCHANGE 213.87
#SCROLL 1.01
1440, //16
#BPMCHANGE 218.32
#SCROLL 0.99
12,
#BPMCHANGE 216.56
12,
#BPMCHANGE 216.24
11,
#BPMCHANGE 215.02
#SCROLL 1
1110, //20
#BPMCHANGE 216.23
12,
1110,
12,
1110, //24
12,
#BPMCHANGE 217.93
#SCROLL 0.99
12,
#BPMCHANGE 216.16
#SCROLL 1
2222,
#BPMCHANGE 211.6
#SCROLL 1.02
2330, //28
#BPMCHANGE 219.41
#SCROLL 0.98
12,
#BPMCHANGE 219.61
12,
#BPMCHANGE 214.98
#SCROLL 1
11,
#BPMCHANGE 214.19
7008, //32
#BPMCHANGE 216.23
1120,
1120,
1120,
1110, //36
1120,
#BPMCHANGE 220.68
#SCROLL 0.97
1120,
#BPMCHANGE 214.22
#SCROLL 1
1011,
#BPMCHANGE 216.32
#SCROLL 0.99
0440, //40
#BPMCHANGE 215.19
#SCROLL 1
12,
#BPMCHANGE 218.1
#SCROLL 0.99
12,
#BPMCHANGE 214.65
#SCROLL 1
11,
7008, //44
#BPMCHANGE 216.23
1011,
1011,
1011,
12, //48
1011,
#BPMCHANGE 217.45
#SCROLL 0.99
1011,
#BPMCHANGE 216.23
#SCROLL 1
1,
3330, //52
12,
12,
11,
500000000000000000000000000000000008000000000000, //56
21,
21,
22,
2220, //60
1,
2,
1,
2, //64
12,
12,
500000000000000000000000000000000000000000000008,
#BPMCHANGE 215.03
0, //68
#BPMCHANGE 219.4
#SCROLL 0.98
#GOGOSTART
1011,
#BPMCHANGE 213.24
#SCROLL 1.01
0202,
#BPMCHANGE 220.65
#SCROLL 0.97
1011,
#BPMCHANGE 211.98
#SCROLL 1.02
0202, //72
#BPMCHANGE 220.65
#SCROLL 0.97
1011,
#BPMCHANGE 214.61
#SCROLL 1
0202,
#BPMCHANGE 213.66
#SCROLL 1.01
33,
#BPMCHANGE 212.29
3330, //76
#BPMCHANGE 223.25
#SCROLL 0.96
1012,
#BPMCHANGE 214.49
#SCROLL 1
0202,
#BPMCHANGE 218.18
#SCROLL 0.99
1012,
#BPMCHANGE 217.03
0202, //80
#BPMCHANGE 215.61
#SCROLL 1
1012,
#BPMCHANGE 217.31
#SCROLL 0.99
0202,
#BPMCHANGE 213.18
#SCROLL 1.01
33,
#BPMCHANGE 217.74
#SCROLL 0.99
3330, //84
#GOGOEND
#BPMCHANGE 208.77
#SCROLL 1.03
700000000000000000000000000000000008000000000000,
0,
0, //87
#END
COURSE:Easy
LEVEL:3
BALLOON:5,5,5
SCOREINIT:670,7280
SCOREDIFF:265
#START
#SCROLL 0.97
0,
#BPMCHANGE 212.43
#SCROLL 1.01
0,
#BPMCHANGE 220.27
#SCROLL 0.98
1011,
#BPMCHANGE 213.6
#SCROLL 1.01
0, //4
#BPMCHANGE 218.92
#SCROLL 0.98
1011,
#BPMCHANGE 214.61
#SCROLL 1
0,
#BPMCHANGE 213.66
#SCROLL 1.01
33,
#BPMCHANGE 217.17
#SCROLL 0.99
3330, //8
#BPMCHANGE 216.23
#SCROLL 1
1011,
1,
#BPMCHANGE 218.78
#SCROLL 0.98
1011,
#BPMCHANGE 213.75
#SCROLL 1.01
1, //12
#BPMCHANGE 216.23
#SCROLL 1
11,
#BPMCHANGE 217.46
#SCROLL 0.99
11,
#BPMCHANGE 216.23
#SCROLL 1
500000000000000000000000000000000000000008000000,
#BPMCHANGE 213.87
#SCROLL 1.01
0440, //16
#BPMCHANGE 218.32
#SCROLL 0.99
1,
#BPMCHANGE 216.56
1,
#BPMCHANGE 216.24
11,
#BPMCHANGE 215.02
#SCROLL 1
1110, //20
#BPMCHANGE 216.23
11,
1110,
11,
1110, //24
12,
#BPMCHANGE 217.93
#SCROLL 0.99
12,
#BPMCHANGE 216.16
#SCROLL 1
0,
#BPMCHANGE 211.6
#SCROLL 1.02
0330, //28
#BPMCHANGE 219.41
#SCROLL 0.98
1,
#BPMCHANGE 219.61
1,
#BPMCHANGE 214.98
#SCROLL 1
11,
#BPMCHANGE 214.19
7008, //32
#BPMCHANGE 216.23
12,
12,
12,
1110, //36
12,
#BPMCHANGE 220.68
#SCROLL 0.97
12,
#BPMCHANGE 214.22
#SCROLL 1
500000000000000000000000000000000000000008000000,
#BPMCHANGE 216.32
#SCROLL 0.99
0440, //40
#BPMCHANGE 215.19
#SCROLL 1
1,
#BPMCHANGE 218.1
#SCROLL 0.99
1,
#BPMCHANGE 214.65
#SCROLL 1
11,
7008, //44
#BPMCHANGE 216.23
12,
12,
12,
1110, //48
12,
#BPMCHANGE 217.45
#SCROLL 0.99
12,
#BPMCHANGE 216.23
#SCROLL 1
22,
3330, //52
1,
1,
11,
1, //56
2,
2,
22,
2220, //60
1,
2,
1,
2, //64
12,
12,
500000000000000000000000000000000000000000000008,
#BPMCHANGE 215.03
0, //68
#BPMCHANGE 219.4
#SCROLL 0.98
#GOGOSTART
1011,
#BPMCHANGE 213.24
#SCROLL 1.01
0,
#BPMCHANGE 220.65
#SCROLL 0.97
1011,
#BPMCHANGE 211.98
#SCROLL 1.02
0, //72
#BPMCHANGE 220.65
#SCROLL 0.97
1011,
#BPMCHANGE 214.61
#SCROLL 1
0,
#BPMCHANGE 213.66
#SCROLL 1.01
33,
#BPMCHANGE 212.29
3330, //76
#BPMCHANGE 223.25
#SCROLL 0.96
1022,
#BPMCHANGE 214.49
#SCROLL 1
0,
#BPMCHANGE 218.18
#SCROLL 0.99
1022,
#BPMCHANGE 217.03
0, //80
#BPMCHANGE 215.61
#SCROLL 1
1022,
#BPMCHANGE 217.31
#SCROLL 0.99
0,
#BPMCHANGE 213.18
#SCROLL 1.01
33,
#BPMCHANGE 217.74
#SCROLL 0.99
3330, //84
#GOGOEND
#BPMCHANGE 208.77
#SCROLL 1.03
700000000000000000000000000000000008000000000000,
0,
0, //87
#END