Files
TJA-by-song-no/tja/561.tja
2026-03-04 23:59:27 +09:00

408 lines
4.8 KiB
Plaintext

//TJADB Project
TITLE:Kagayaki o Motomete
TITLEJA:輝きを求めて
SUBTITLE:--Versus feat. Fuko Nishina
SUBTITLEJA:Versus
BPM:80
WAVE:Kagayaki o Motomete.ogg
OFFSET:-3.153
DEMOSTART:56.699
COURSE:Oni
LEVEL:8
BALLOON:16
SCOREINIT:610
SCOREDIFF:140
#START
11201121,
1021022210070000,
#BPMCHANGE 200
0000000800001111,
10201120,
11111020,
500000000000000000000000000000000000000008000000,
30000120,
#GOGOSTART
1000100020112010,
0020101020112010,
1000100020112010,
0020101011111111,
#GOGOEND
10012011,
01012020,
10012050,
000000000000000008000000300000300000000000000000,
10100002,
0200,
10100003,
0300,
1110200000000000,
10020000,
10000003,
0030003000211010,
11211212,
0020101020101021,
11211210,
0020101020101111,
10210201,
01201120,
30030030,
0000200011102000,
1000200011102000,
1000200011102000,
1000201000112010,
1010201000112010,
0022102000112010,
0022102000112010,
1011101010111020,
1011101010111020,
1011101110111020,
500000000008000000200000500000000000000000000008,
04040403,
#GOGOSTART
0011102010002010,
0011201000122010,
0011201000122010,
0011201000102210,
0011102010102010,
0011201000001000,
1000201110002011,
1000201110202010,
0011201020102010,
0011201000122010,
0011201000122010,
0011201020202210,
0011201020102010,
0011201000002020,
10210020,
10210020,
500000000000000000000000000000000000000000000008,
0000200020112000,
500000000000000000000008000000200000100100200000,
0020112000102211,
1010102011102010,
0010300022112000,
41141146,
,
000000000000000008000000300000300000000000300000,
#GOGOEND
0020102210102010,
0020102210102222,
1000100022102010,
0020102011112000,
30210210,
0011101040002222,
10210250,
000000000000000008000000200000100000200200200200,
10330303,
0030003000404011,
2211102210221030,
03300000,
#END
COURSE:Hard
LEVEL:6
BALLOON:15
SCOREINIT:580
SCOREDIFF:180
#START
10201120,
1000200010070000,
#BPMCHANGE 200
08,
11,
1111,
500000000000000000000000000000000000000000000008,
,
#GOGOSTART
10101001,
02102110,
10101001,
02102110,//11
#GOGOEND
30030030,
03004040,
30030060,
000000000000000000000008000000000000000000000000,
10100002,
0200,
10100003,
0300,
1100,
20020000,
10000003,
03030000,
11210210,
02110210,
11210210,
02102110,
10210201,
00201120,
30030030,
00201120,
10201120,
10201120,
10210120,
11210121,
02120121,
02120012,
10101012,
10101012,
10101012,
500000000000000000000000000000000000000008000000,
04040403,//42
#GOGOSTART
01121021,
01210121,
02120121,
01210021,
01121121,
01210010,
10022001,
10044001,
01121102,
01210121,
02120121,
01210001,
01121121,
01210022,
10020020,
10020020,
500000000000000000000000000000000000000000000008,
0222,
500000000000000000000008000000200000200000200000,
02220010,
11111111,
01302020,
30030006,
,
00008001,//67
#GOGOEND
00102021,
00202110,
10102021,
00202110,
30030030,
03004040,
30030060,
000000000000000000000000000000000008000000000000,
30330303,
03030440,
30330303,
03300000,
,
,
#END
COURSE:Normal
LEVEL:6
BALLOON:11,23
#START
1202,
1000200010070000,
#BPMCHANGE 200
08,
11,
1111,
500000000000000000000000000000000000000000000008,
,//7
#GOGOSTART
10101001,
0120,
10101001,
0120,//11
#GOGOEND
30030030,
03004040,
30030060,
000000000000000000000008000000000000000000000000,
10100002,
02000000,
10100003,
0300,
1100,
20020000,
10000003,
03030000,
10010020,
01010020,
10010020,
00002220,
10010201,
00002220,
30030030,
00002220,
12,
1120,
12,
1100,
10020000,
10020000,
11,
10101011,
10101011,
500000000000000000000000000000000000000008000000,
04040403,//42
#GOGOSTART
01101001,
01110111,
02220111,
01110001,
01101002,
01110010,
10022001,
10022001,
01101001,
01110111,
02220111,
01110001,
01101002,
01110022,
10020020,
10020020,
500000000000000000000000000000000000000000000008,
0222,
500000000000000000000008000000000000200000200000,
00220000,
10101011,
0300,
30030006,
,
000000000000000000000008000000000000000000100000,//67
#GOGOEND
00102001,
0220,
10102001,
0220,
30030030,
03004040,
30030060,
000000000000000000000000000000000008000000000000,
9,
,
0900,
8,
,
,
#END
COURSE:Easy
LEVEL:5
BALLOON:6,18
#START
11,
1000000010070000,
#BPMCHANGE 200
08,
11,
11,
500000000000000000000000000000000000000000000008,
,//7
#GOGOSTART
11,
1110,
11,
1110,//11
#GOGOEND
30030030,
03004000,
30030060,
000000000000000000000008000000000000000000000000,
10100001,
0100,
10100001,
0100,
1100,
10010000,
10000003,
03030000,
10010000,
10010000,
10010010,
,
10010000,
10010000,
30030030,
,
12,
12,
12,
1100,
1,
1,
11,
11,
11,
500000000000000000000000000000000000000000000008,
00000001,//42
#GOGOSTART
00101001,
0202,
0202,
00200001,
00101001,
0202,
22,
20002001,
00101001,
0202,
0202,
00200001,
00101001,
0202,
20020020,
20020020,
500000000000000000000000000000000000000000000008,
02,
50008002,
00020000,
1111,
0300,
30030006,
,
000000000000000000000008000000000000000000100000,//67
#GOGOEND
00102001,
0120,
10102001,
0120,
30030030,
03004040,
30030060,
000000000000000000000000000000000008000000000000,
9,
,
0900,
8,
,
,
#END