Files
TJA-by-song-no/tja/568.tja
2026-03-04 23:59:27 +09:00

630 lines
7.4 KiB
Plaintext
Raw Permalink Blame History

This file contains ambiguous Unicode characters
This file contains Unicode characters that might be confused with other characters. If you think that this is intentional, you can safely ignore this warning. Use the Escape button to reveal them.
//TJADB Project
TITLE:Shiritsu Takama-ga-hara Gakuen Koukou Kouka
TITLEJA:私立高天原学園高校・校歌
SUBTITLE:--D.watt (IOSYS) feat. Np Hiko Inuta & Hakase
SUBTITLEJA:D.watt(IOSYS) feat. Np 犬田彦 山本椛
BPM:188
WAVE:Shiritsu Takama-ga-hara Gakuen Koukou Kouka.ogg
OFFSET:-3.929
DEMOSTART:20.464
//Shinuchi: 4880/2470/1550/1110
COURSE:Oni
LEVEL:9
BALLOON:5,70
SCOREINIT:390,1200
SCOREDIFF:90
#START
0000000022222222,
11,
11,
1111,
1010101111112000,
1001201000102000,
1001201002102210,
1001201000102010,
1011201002102211, //9
1001201002102210,
0011201202102211,
1011201202112010,
0010201020102210,
#GOGOSTART
300000000000000000000000600000000000000008000000,
300000300000000000000600000000000000000008000000,
33004040,
2210221022112212, //17
#GOGOEND
11111021,
1011101020111010,
1010201011101020,
0010111010211000,
1001101010112010,
1110101011102010,
100000100000200100100000100010001000200000100000,
101010100100100000200000, //25
1010111010201011,
1020111010102010,
0011101010102011,
100000100000200100100000101010100100200000100000,
10011001,
01011000,
10111401,
000000100000100000100000700000000000080000000000, //33
10220120,
10220122,
11221122,
1010202210102022,
1010222210102222,
1010222211221000,
10000002,
02022340,
2222102222122210,
0000200020112010, //43
#GOGOSTART
0010201022102010,
0010201022112000,
1020102210201022,
1020102212102010,
0011201022102010,
0010221120102011,
1010201210102030,
0030303022222030, //51
0020112010221020,
0020112011221020,
0020102211201022,
1020102210112010,
2030302210404012,
100000100000600008000000100200000200100100100100,
2011201120112012,
200200200200200111200000, //59
#GOGOEND
1000001020010010,
1000001020012010,
1010100020010010,
100100100100200000000211,
1000001020010010,
1000100020012010,
33,
33333040, //67
1002102010211022,
1002102010211022,
1012102012212010,
1122121011204000,
1002112012012012,
1022120212012012,
1010112212012010,
100000100200100200102010201000000000400000000000, //75
1011012010012010,
1021101020010012,
1010102110010010,
2011101021012010,
100010001000100000200000100100000100100000200000,
1021112011011021,
1111101211011021,
000100100000100000100000100000001000000200100000,
0,
600000000000000000000000000008000000200000000000, //85
1,
0,
0,
0,
0202,
00200021,
1010201110102030,
3030303022222030, //93
#GOGOSTART
0020112010221020,
0020112011221020,
0020102211201022,
1020102210112010,
2030302210404012,
100000100000600008000000200200200200000200100100,
2011201121112111,
200200200200222200200000, //101
1020001000221010,
0020101000222210,
0022101000111120,
0020112212212270,
0,
0,
0,
0084, //109
#GOGOEND
#BARLINEOFF
0,
0,
0, //112
#END
COURSE:Hard
LEVEL:7
BALLOON:13,46
SCOREINIT:430,1700
SCOREDIFF:100
#START
0,
11,
11,
1111,
1010101011104000,
10210120,
10210122,
10210120,
1000201000102220, //9
10210121,
01212122,
11221121,
0010101011101110,
#GOGOSTART
300000000000000000000000600000000000000008000000,
300000300000000000000600000000000000000008000000,
33004040,
3000100011101010, //17
#GOGOEND
10112011,
1010102000111010,
12011112,
0010111010102000,
1000101020111010,
11111201,
1010102011101020,
11112000, //25
1010111020001010,
12111112,
0011101010200011,
1010102011101020,
10012001,
01012000,
10112001,
01221020, //33
10220120,
10220120,
11221122,
11221122,
1110202011102020,
100100100000200000200000500000000000000008000000,
1,
00000340,
700000000000000000000000000000000000000000000008,
00000001, //43
#GOGOSTART
01211121,
0010201011102000,
00201121,
1010201110102010,
01211101,
0010201110000010,
1010201110102030,
03330003, //51
02121212,
0020102011102010,
0020102010222020,
1020101000000011,
1020201110202010,
1010100030030030,
01112121,
2020202020222000, //59
#GOGOEND
1000001010010010,
1000001010010010,
1010100010010010,
11112000,
1000001020010010,
1122,
33,
33333040, //67
1000100010010010,
1000100010010010,
1010100010010010,
11110440,
1000100010010010,
1010100010010010,
1010100010010010,
1010111000004000, //75
1001100010010010,
1001100010010010,
1010100010010010,
11110440,
1001100010010010,
1001100010010010,
1011100010010010,
11111111,
0,
600000000000000000000000000008000000200000000000, //85
1,
0,
0,
0,
0202,
00200021,
11211123,
03330003, //93
#GOGOSTART
02121212,
0020102011102010,
0020102010222020,
1020101000000011,
1020201110202010,
1010100030030030,
01112121,
2020202020222000, //101
12010221,
02110221,
02110112,
0020201110111070,
0,
0,
0,
0084, //109
#GOGOEND
#BARLINEOFF
0,
0,
0, //112
#END
COURSE:Normal
LEVEL:6
BALLOON:6,7,8,12,30
SCOREINIT:530,2890
SCOREDIFF:128
#START
0,
1,
1,
11,
1114,
10200110,
10200110,
10200110,
10200220, //9
10220110,
10220110,
10220110,
01111111,
#GOGOSTART
3,
33000000,
33004040,
7008, //17
#GOGOEND
1111,
11110222,
22011111,
000000500000000000000000000000000008000000000000,
1111,
10111100,
11102220,
500000000000000000000000000008000000000000000000, //25
11111022,
22201111,
02222207,
0008,
10011001,
01011000,
10011001,
01011000, //33
10220020,
10220020,
1212,
1212,
3434,
600000000000000000000000000000000000000000000008,
0,
0,
700000000000000000000000000000000000000000000008,
00000001, //43
#GOGOSTART
00101011,
01102220,
00101111,
01102201,
01101101,
02222001,
10111105,
000000000000000000000008000000000000000000100000, //51
00101011,
01102220,
00101011,
02220003,
30044000,
300000000000300000000000600000000000000008000000,
01111111,
1, //59
#GOGOEND
10011000,
10011000,
1110,
1120,
10011000,
1122,
33,
3334, //67
1111,
1111,
11101010,
11110440,
10101011,
1111,
7,
0084, //75
10101011,
10101011,
11101011,
11110440,
10101011,
10101011,
11101011,
500000000000000000000000000000000000000000000008,
0,
600000000000000000000000000000000000000000000008, //85
0,
0,
0,
0,
11,
11,
10111115,
000000000000000000000008000000000000000000100000, //93
#GOGOSTART
00101011,
01102220,
00101011,
02220003,
30044000,
300000000000300000000000600000000000000008000000,
01111111,
1, //101
5,
000000000000000000000000000008000000000000300000,
00030003,
00030007,
0,
0,
0,
0008, //109
#GOGOEND
#BARLINEOFF
0,
0,
0,
#END
COURSE:Easy
LEVEL:4
BALLOON:21,4,9,4,10,26
SCOREINIT:590,5980
SCOREDIFF:148
#START
0,
7,
0,
0,
00000800,
11,
1011,
11,
1011, //9
11,
1011,
5,
000000000000000000000000000008000000000000000000,
#GOGOSTART
3,
3,
3044,
70000800, //17
#GOGOEND
1110,
1110,
1111,
000000500000000000000000000008000000000000000000,
1110,
1110,
1111,
500000000000000000000000000008000000000000000000, //25
2220,
2222,
07000000,
00000800,
10000001,
0,
10000001,
0, //33
1011,
1011,
11,
11,
33,
600000000000000000000000000000000000000000000008,
0,
0,
900000000000000000000000000000000009000000000008,
0, //43
#GOGOSTART
1110,
1111,
0500,
000000000000000000000000000008000000000000000000,
1110,
2220,
10001005,
000000000000000000000008000000000000000000300000, //51
00101003,
0111,
0500,
000000000000000000000000000008000000000000000000,
34,
3330,
1111,
1, //59
#GOGOEND
1,
0,
0,
0,
1,
1,
33,
3004, //67
1110,
1110,
1111,
500000000000000000000000000008000000000000000000,
2222,
2220,
7,
00000800, //75
1111,
1111,
1111,
500000000000000000000000000008000000000000000000,
2222,
2222,
2222,
500000000000000000000000000000000000000000000008,
0,
600000000000000000000000000000000000000000000008, //85
0,
0,
0,
0,
1,
1,
10001005,
000000000000000000000008000000000000000000300000, //93
#GOGOSTART
00101003,
0111,
0500,
000000000000000000000000000008000000000000000000,
34,
3330,
1111,
1, //101
5,
000000000000000000000000000000000000000008000000,
0,
00000007,
0,
0,
0,
0008, //109
#GOGOEND
#BARLINEOFF
0,
0,
0, //112
#END