544 lines
6.3 KiB
Plaintext
544 lines
6.3 KiB
Plaintext
//TJADB Project
|
|
TITLE:Sengoku Sangen
|
|
TITLEJA:戦国三弦
|
|
SUBTITLE:--Kakumi Nishigomi
|
|
BPM:144
|
|
WAVE:Sengoku Sangen.ogg
|
|
OFFSET:-1.952
|
|
DEMOSTART:14.026
|
|
|
|
COURSE:Oni
|
|
LEVEL:9
|
|
BALLOON:25,15,12,6
|
|
SCOREINIT:490
|
|
SCOREDIFF:123
|
|
|
|
|
|
#START
|
|
|
|
|
|
#MEASURE 5/4
|
|
600008000000000000000000000000000000000000000000000000000000,
|
|
|
|
#MEASURE 4/4
|
|
#SECTION
|
|
#BRANCHSTART r,1,3
|
|
#N
|
|
1000002010000011,
|
|
1000002010001011,
|
|
1000002010000011,
|
|
11110110,
|
|
30330333,
|
|
3,
|
|
#GOGOSTART
|
|
1011102010111020,
|
|
1011102011112010,
|
|
1011102010111020,
|
|
1011102011112010,
|
|
1020112010222020,
|
|
1020112010222020,
|
|
1022202012202020,
|
|
1022102210303000,
|
|
#GOGOEND
|
|
1022102010112010,
|
|
1022102010112010,
|
|
1000201011102010,
|
|
1000201011102211,
|
|
1000201011102010,
|
|
1020112010201120,
|
|
1000201011102010,
|
|
1000201011102211,
|
|
1000201011102010,
|
|
1120112030303030,
|
|
1012101210112110,
|
|
1012101210112210,
|
|
1012101210112110,
|
|
1012101211221120,
|
|
1012101210112110,
|
|
1012101210112210,
|
|
1012101210112110,
|
|
1012101210112210,
|
|
3001002210201020,
|
|
3001002210222020,
|
|
3001002210201020,
|
|
1001002210222020,
|
|
1001002210201020,
|
|
1001002210222020,
|
|
1001002210221020,
|
|
10100110,
|
|
1022201000102000,
|
|
1022201000102010,
|
|
1022201000102000,
|
|
1022201010002210,
|
|
1022201000102000,
|
|
1022201000102010,
|
|
1022201000102000,
|
|
1022201010002210,
|
|
1000201110002011,
|
|
1000201110002011,
|
|
1021102110211021,
|
|
1021102110211021,
|
|
1021201210212012,
|
|
1021201210212010,
|
|
30300303,
|
|
30300303,
|
|
1020001010002011,
|
|
1020001011101000,
|
|
1020001010002011,
|
|
1020200011102210,
|
|
30330333,
|
|
3,
|
|
#GOGOSTART
|
|
1011102010111020,
|
|
1011102011112010,
|
|
1011102010111020,
|
|
1011102011112010,
|
|
1020112010222020,
|
|
1020112010222020,
|
|
1022202012202020,
|
|
1022102210303000,
|
|
00003330,
|
|
|
|
#E
|
|
10211002,
|
|
10210110,
|
|
10211002,
|
|
11112110,
|
|
10110333,
|
|
600000000000000000000000000008000000400000000000,
|
|
#GOGOSTART
|
|
1022102011211020,
|
|
1022102010211120,
|
|
1022102011211020,
|
|
1022102010211120,
|
|
1112221122121212,
|
|
1112221122121212,
|
|
1022102010121010,
|
|
1020112010404000,
|
|
#GOGOEND
|
|
1022202220221022,
|
|
2022202220222022,
|
|
1010201101201020,
|
|
1010201201202020,
|
|
1010201101201020,
|
|
1010201101202020,
|
|
1110201101201020,
|
|
1110201201202020,
|
|
1110201101201020,
|
|
1110202020404040,
|
|
1022202220222022,
|
|
1022202210112011,
|
|
2021201120212011,
|
|
2012201120122011,
|
|
2022101120221011,
|
|
2021101120211011,
|
|
2012101120121011,
|
|
2010201022101011,
|
|
2011202011221120,
|
|
1222112211112020,
|
|
100000100100200000200000100000202020100000100000,
|
|
2011202211221012,
|
|
1011202010121012,
|
|
1011202210112022,
|
|
1011221211221122,
|
|
1111201120404000,
|
|
10210210,
|
|
2010201010221040,
|
|
40210210,
|
|
21201214,
|
|
40210210,
|
|
21021014,
|
|
40210110,
|
|
21021010,
|
|
20112011,
|
|
20112011,
|
|
21010101,
|
|
2210221022102210,
|
|
2212221022122210,
|
|
2212221222122212,
|
|
1022102220122210,
|
|
1022102222122210,
|
|
1000201010000022,
|
|
1000201000101011,
|
|
1700,
|
|
0008,
|
|
10110333,
|
|
600000000000000000000000000008000000400000000000,
|
|
#GOGOSTART
|
|
1022102011211020,
|
|
1022102010211120,
|
|
1022102011211020,
|
|
1022102010211120,
|
|
1112221122121212,
|
|
1112221122121212,
|
|
1022102010121010,
|
|
1020112010404000,
|
|
600000000000000008000000300000400000400000000000,
|
|
|
|
#M
|
|
10011000,
|
|
20022000,
|
|
10011000,
|
|
20022000,
|
|
30330444,
|
|
7008,
|
|
#GOGOSTART
|
|
1011202210112022,
|
|
1011202210112022,
|
|
1110222011102221,
|
|
1012202110122021,
|
|
1122201011222010,
|
|
1122201011222010,
|
|
1120221011202210,
|
|
1122201030304000,
|
|
#GOGOEND
|
|
2210112022101120,
|
|
2201101202211120,
|
|
2020101010222010,
|
|
1010202020111020,
|
|
2210112020201010,
|
|
1202211012022010,
|
|
1010202020111020,
|
|
2020101010222010,
|
|
1120221010102020,
|
|
2101122021011220,
|
|
2011102220111022,
|
|
2011102220111020,
|
|
2021101220211012,
|
|
2021101220211010,
|
|
2022101120221011,
|
|
2022101120221010,
|
|
1022211010222110,
|
|
1222101012221010,
|
|
1220201110222110,
|
|
1220201110222110,
|
|
1220211012221010,
|
|
1220211012221010,
|
|
1222001110222110,
|
|
1222001110222110,
|
|
1220211012221110,
|
|
2221112000202000,
|
|
1110222011102220,
|
|
1110222010101020,
|
|
2210112022101120,
|
|
2210112022101010,
|
|
2220111022201110,
|
|
2220111020202010,
|
|
1120221011202210,
|
|
1120221011202020,
|
|
0000111000002220,
|
|
0000111000002220,
|
|
0012201220122012,
|
|
2012201220122012,
|
|
2012201220122012,
|
|
2012201220122030,
|
|
3000302220300030,
|
|
30400404,
|
|
30011000,
|
|
20022000,
|
|
10011000,
|
|
20022000,
|
|
30330444,
|
|
7000000008003000,
|
|
#GOGOSTART
|
|
1012202010112022,
|
|
1011202020111020,
|
|
2021101020221011,
|
|
2022101010222000,
|
|
1112221112221010,
|
|
1222111222111020,
|
|
2211122211122210,
|
|
1122201112204000,
|
|
70803330,
|
|
|
|
#BRANCHEND
|
|
#GOGOEND
|
|
|
|
|
|
#END
|
|
|
|
|
|
COURSE:Hard
|
|
LEVEL:6
|
|
BALLOON:10,15
|
|
SCOREINIT:610
|
|
SCOREDIFF:150
|
|
|
|
|
|
#START
|
|
|
|
|
|
#MEASURE 5/4
|
|
,
|
|
#MEASURE 4/4
|
|
10011001,
|
|
10011010,
|
|
10011001,
|
|
10011110,
|
|
30330333,
|
|
3,//7
|
|
|
|
#GOGOSTART
|
|
1000200010101011,
|
|
1000200010111011,
|
|
1000200010101011,
|
|
1000200010111000,
|
|
1010111010000000,
|
|
1010111010000000,
|
|
1011101010111000,
|
|
1110111010101000,//15
|
|
|
|
#GOGOEND
|
|
1000000000111000,
|
|
1,
|
|
10110220,
|
|
10110220,
|
|
11101110,
|
|
1212,
|
|
10110220,
|
|
10110220,
|
|
11101110,
|
|
1212,
|
|
12021201,
|
|
1020002010200011,
|
|
12021201,
|
|
1020002010200011,
|
|
12021201,
|
|
1020002010200011,
|
|
11111010,
|
|
11111010,
|
|
1001002220000010,
|
|
1001002220000000,
|
|
1001002220200010,
|
|
1001002220200000,
|
|
1001002220000010,
|
|
1001002220000000,
|
|
10011000,
|
|
30300330,
|
|
10120010,
|
|
11012010,
|
|
10120010,
|
|
1010001020001110,
|
|
10120010,
|
|
11012010,
|
|
10120010,
|
|
1010001020001110,
|
|
00330033,
|
|
00330033,
|
|
07000000,
|
|
00000800,
|
|
7,
|
|
08,
|
|
30300202,
|
|
30300202,
|
|
30022001,
|
|
10022001,
|
|
10022001,
|
|
10101110,
|
|
30330333,
|
|
3,//63
|
|
|
|
#GOGOSTART
|
|
1000200010101011,
|
|
1000200010111011,
|
|
1000200010101011,
|
|
1000200010111000,
|
|
1010111010000000,
|
|
1010111010000000,
|
|
1011101010111000,
|
|
1110111010101000,
|
|
00003330,//72
|
|
|
|
#GOGOEND
|
|
,
|
|
,
|
|
,
|
|
#END
|
|
|
|
COURSE:Normal
|
|
LEVEL:5
|
|
BALLOON:10,15
|
|
SCOREINIT:740
|
|
SCOREDIFF:200
|
|
|
|
#START
|
|
#MEASURE 5/4
|
|
,
|
|
#MEASURE 4/4
|
|
3,
|
|
1,
|
|
3,
|
|
1,
|
|
30330000,
|
|
3,//7
|
|
|
|
#GOGOSTART
|
|
10201110,
|
|
1210,
|
|
10201110,
|
|
1210,
|
|
2220,
|
|
2220,
|
|
10201110,
|
|
1133,//15
|
|
|
|
#GOGOEND
|
|
00000330,
|
|
,
|
|
1211,
|
|
10201110,
|
|
1211,
|
|
1110,
|
|
1211,
|
|
10201110,
|
|
1211,
|
|
1110,
|
|
1021,
|
|
1021,
|
|
1021,
|
|
1110,
|
|
1021,
|
|
1021,
|
|
1021,
|
|
1110,
|
|
10000001,
|
|
1011,
|
|
10000001,
|
|
10001110,
|
|
10000001,
|
|
1011,
|
|
33,
|
|
30300330,
|
|
10220010,
|
|
10220000,
|
|
10220010,
|
|
10220000,
|
|
10220010,
|
|
10220000,
|
|
10220010,
|
|
10220000,
|
|
00110011,
|
|
00110011,
|
|
7,
|
|
08,
|
|
7,
|
|
08,
|
|
3300,
|
|
3300,
|
|
10022001,
|
|
10022000,
|
|
10022001,
|
|
10022000,
|
|
30330333,
|
|
3,//63
|
|
|
|
#GOGOSTART
|
|
10201110,
|
|
1210,
|
|
10201110,
|
|
1210,
|
|
2220,
|
|
2220,
|
|
10201110,
|
|
10103330,
|
|
00003330,//72
|
|
|
|
#GOGOEND
|
|
,
|
|
,
|
|
,
|
|
#END
|
|
|
|
COURSE:Easy
|
|
LEVEL:4
|
|
BALLOON:10,15
|
|
SCOREINIT:650
|
|
SCOREDIFF:220
|
|
|
|
#START
|
|
#MEASURE 5/4
|
|
,
|
|
#MEASURE 4/4
|
|
3,
|
|
1,
|
|
3,
|
|
1,
|
|
3300,
|
|
3,//7
|
|
|
|
#GOGOSTART
|
|
1101,
|
|
1101,
|
|
1101,
|
|
1100,
|
|
2220,
|
|
2220,
|
|
22,
|
|
2200,//15
|
|
|
|
#GOGOEND
|
|
00000330,
|
|
,
|
|
1011,
|
|
1011,
|
|
11,
|
|
1110,
|
|
1011,
|
|
1011,
|
|
11,
|
|
1110,
|
|
12,
|
|
12,
|
|
12,
|
|
1110,
|
|
12,
|
|
12,
|
|
12,
|
|
1110,
|
|
1,
|
|
1011,
|
|
1,
|
|
1011,
|
|
1,
|
|
1011,
|
|
11,
|
|
1100,
|
|
10010000,
|
|
10010000,
|
|
20020000,
|
|
20020000,
|
|
10010000,
|
|
10010000,
|
|
20020000,
|
|
20020000,
|
|
11,
|
|
11,
|
|
7,
|
|
08,
|
|
7,
|
|
08,
|
|
3300,
|
|
3300,
|
|
10000001,
|
|
1,
|
|
10000001,
|
|
1,
|
|
3,
|
|
,//63
|
|
|
|
#GOGOSTART
|
|
1101,
|
|
1101,
|
|
1101,
|
|
1100,
|
|
2220,
|
|
2220,
|
|
11,
|
|
10100330,
|
|
00003330,//72
|
|
|
|
#GOGOEND
|
|
,
|
|
,
|
|
,
|
|
#END |