Files
TJA-by-song-no/tja/661.tja
2026-03-04 23:59:27 +09:00

407 lines
5.0 KiB
Plaintext

//TJADB Project
TITLE:Super Dragon Ball Heroes Theme Song
TITLEJA:スーパードラゴンボールヒーローズ テーマソング
SUBTITLE:--Takayoshi Tanimoto/Super Dragon Ball Heroes
SUBTITLEJA:
BPM:84.03
WAVE:Super Dragon Ball Heroes Theme Song.ogg
OFFSET:-3.011
DEMOSTART:65.942
//shinuchi: 12080/6510/3410/2570
COURSE:Oni
LEVEL:6
BALLOON:10,14
SCOREINIT:780,2860
SCOREDIFF:215
#START
#BARLINEOFF
#MEASURE 1/8
1,
#BARLINEON
#MEASURE 4/4
#BPMCHANGE 84.12
500000000000000000000000000008000000100000100000,
#BPMCHANGE 83.5
1111,
#BPMCHANGE 84.61
1111500000000000,
#BPMCHANGE 84.41
000000000000000000000000000000000000000008000000,
#BPMCHANGE 178
111222111222, //6
10102101,
0010201110102110,
11221101,
0010200011201120,
1002002010020020,
1002002010020020,
1034,
1110003000112000, //14
10201120,
1120112011201120,
10201120,
33330000,
10120201,
20120122,
10120201,
20120111, //22
20120111,
2211,
500000000000000000000000000008000000000000300000,
00010122,
1000112000200010,
20120122,
1000112000200010,
20120111, //30
2000112000101010,
20201127,
00000803,
0030303000111020,
0020111000111020,
0020111000102220,
0020111000303030,
40403300, //38
1110111011200050,
000000000000000000000000000000000008000000000000,
2220111022200070,
00000008,
03330000, //43
#GOGOSTART
1011100020112010,
0010200010112020,
1011100020112010,
0010200010112020,
1002001020010020,
3004003030000000,
12121212,
100000100100200000600000000000000008000000000000, //51
1011100020112010,
0010200010112020,
1011102011102010,
0010200010112020,
1002001020010020,
1002001020010020,
1034,
1110003000112000,
30034446,
000000000000000000000000000000000000000000000008,
#GOGOEND
#BARLINEOFF
0,
0, //63
#END
COURSE:Hard
LEVEL:5
BALLOON:40,24,8,12
SCOREINIT:840,4700
SCOREDIFF:238
#START
#BARLINEOFF
#MEASURE 1/8
0,
#MEASURE 4/4
#BPMCHANGE 84.12
0,
#BARLINEON
#BPMCHANGE 83.5
1111,
#BPMCHANGE 84.61
1111700000000000,
#BPMCHANGE 84.41
00000008,
#BPMCHANGE 178
111111100000, //6
10102101,
01201000,
11112101,
01201000,
1001001020020020,
1001001020020020,
1033,
1110003000303000, //14
9,
09,
8,
33330000,
10120201,
20120121,
10120201,
20120111, //22
20120111,
2211,
500000000000000000000000000008000000000000300000,
0,
10120201,
20210121,
10120201,
20210111, //30
20120111,
20201107,
00000803,
03330112,
02110112,
02110121,
02120333,
40403300, //38
12101205,
000000000000000000000000000000000008000000000000,
12101209,
000000000000000009000000,
8, //43
#GOGOSTART
10102101,
01201220,
11112101,
01201220,
1002002010020020,
3004004030000000,
12121212,
100000100000000000600000000000000008000000000000, //51
10102101,
01201220,
11112101,
01201220,
1002002010020020,
1002002010020020,
1033,
1110003000303000,
6,
000000000000000000000000000000000000000000000008,
#GOGOEND
#BARLINEOFF
0,
0, //63
#END
COURSE:Normal
LEVEL:3
BALLOON:30,16,8,9
SCOREINIT:1060,8110
SCOREDIFF:455
#START
#BARLINEOFF
#MEASURE 1/8
0,
#MEASURE 4/4
#BPMCHANGE 84.12
0,
#BARLINEON
#BPMCHANGE 83.5
1111,
#BPMCHANGE 84.61
11700000,
#BPMCHANGE 84.41
0,
#BPMCHANGE 178
000000080000000000000000000000000000000000000000, //6
30000003,
0,
30000003,
0,
12,
12,
1033,
30030030, //14
9,
09,
8,
30030000,
10110101,
0,
10110101,
0, //22
20220000,
2222,
500000000000000000000000000008000000000000300000,
0,
10110101,
0,
10110101,
0, //30
20220000,
20202207,
00000008,
00000101,
00000101,
00000101,
0,
30303300, //38
10101105,
000000000000000000000000000000000008000000000000,
20202209,
000000000000000009000000,
8, //43
#GOGOSTART
10101001,
01101000,
10101001,
01101000,
12,
33,
1111,
600000000000000000000000000000000008000000000000, //51
10101001,
01101000,
10101011,
01101000,
12,
12,
3033,
30030030,
6,
000000000000000000000000000000000000000000000008,
#GOGOEND
#BARLINEOFF
0,
0, //63
#END
COURSE:Easy
LEVEL:2
BALLOON:20,8,4,5
SCOREINIT:1250,15240
SCOREDIFF:938
#START
#BARLINEOFF
#MEASURE 1/8
#SCROLL 0.85
0,
#MEASURE 4/4
#BPMCHANGE 84.12
0,
#BARLINEON
#BPMCHANGE 83.5
11,
#BPMCHANGE 84.61
1700,
#BPMCHANGE 84.41
0,
#BPMCHANGE 178
000000080000000000000000000000000000000000000000, //6
3,
0,
3,
0,
11,
11,
3,
30030030, //14
9,
09,
8,
3,
11,
1,
11,
1, //22
2,
2,
500000000000000000000000000000000000000008000000,
0,
11,
1,
11,
1, //30
2,
20000007,
00000008,
0,
1,
1,
1,
3, //38
10001005,
000000000000000000000000000008000000000000000000,
10001009,
000000000000000009000000,
8, //43
#GOGOSTART
10101005,
000000000000000000000000000008000000000000000000,
10101005,
000000000000000000000000000008000000000000000000,
11,
22,
33,
3, //51
10101005,
000000000000000000000000000008000000000000000000,
10101005,
000000000000000000000000000008000000000000000000,
11,
22,
1,
30030030,
6,
000000000000000000000000000000000000000000000008,
#GOGOEND
#BARLINEOFF
0,
0, //63
#END