Files
TJA-by-song-no/tja/706.tja
2026-03-04 23:59:27 +09:00

332 lines
3.4 KiB
Plaintext

//TJADB Project
TITLE:Koi wa Mizuiro
TITLEJA:恋はみずいろ
SUBTITLE:--Yuri Misumi feat. Crab Prince/Mizuiro Blood
SUBTITLEJA:「みずいろブラッド」より
BPM:154
WAVE:Koi wa Mizuiro.ogg
OFFSET:-12.660
DEMOSTART:37.946
COURSE:Oni
LEVEL:7
BALLOON:60
SCOREINIT:810
SCOREDIFF:230
#START
#SCROLL 1.07
30030030,
02022002,
10200200,
12022002,
10200200,
00200220,
10200200,
10201220,
10200200,
00200220,
10200220,
10201220,
10200200,
00200220,
1111,
1,
0222,
#GOGOSTART
1020112020111020,
0020111020111010,
1020112010201120,
0020112011202122,
1020112020111020,
0020111020111010,
1020112010201120,
0020112011202122,
1020112020221020,
1020112010202120,
1020112020221020,
1020112010202120,
1020112020221020,
1020112010202210,
1020112010202210,
1020112010002000,
#GOGOEND
1220,
1222,
1210,
1221,
1212,
5,
000000000000000000000008000000000000000000000000,
0007,
#GOGOSTART
,
,
,
00000800,
1020111020221020,
1110202210201211,
2011102011102010,
1020111020112022,
1020111020221020,
1110202210201211,
2011102011102010,
1020111020112022,
1020111020112011,
2011201110200000,
#GOGOEND
30030030,
02022002,
00200200,
02002002,
#END
COURSE:Hard
LEVEL:5
BALLOON:50
SCOREINIT:880
SCOREDIFF:220
#START
30030030,
02022002,
10200200,
12022002,
10200200,
00200220,
10200200,
10201240,
40400200,
00200220,
10200220,
10201220,
10200200,
00200220,
1111,
1,
0222,//17
#GOGOSTART
10201120,
10201120,
12102112,
0222,
10201120,
10201120,
12102112,
0222,
12102112,
02101210,
12102112,
02101020,
12102112,
12101020,
12102112,
12101020,//33
#GOGOEND
1220,
1222,
1210,
1221,
1212,
5,
000000000000000000000008000000000000000000000000,
0007,//41
#GOGOSTART
,
,
,
00000800,
12012012,
01211200,
21021021,
01211202,
12012012,
01211200,
21021021,
02112020,
12012120,
21211200,//55
#GOGOEND
30030030,
02022002,
00200200,
02002002,
,
,
,
,
#END
COURSE:Normal
LEVEL:4
BALLOON:40,40
SCOREINIT:1120
SCOREDIFF:340
#START
30030030,
,
1,
1,
1200,
0212,
1212,
0004,
4400,
0212,
1212,
,
1200,
01,
500000000000000000000000000000000000000000000008,
,
0222,//17
#GOGOSTART
1212,
1015,
000000000000000000000000000000000000000000000008,
0112,
1212,
2025,
000000000000000000000000000000000000000000000008,
0334,
3430,
0443,
4340,
0112,
1212,
3036,
000000000000000000000000000000000008000000000000,
0222,//33
#GOGOEND
1210,
0222,
1210,
0222,
1212,
5,
000000000000000000000008000000000000000000000000,
0007,//41
#GOGOSTART
,
,
,
00000800,
11001010,
1210,
1211,
1210,
11001010,
1210,
1211,
1210,
11001010,
1212,//55
#GOGOEND
9,
,
,
9,
8,
,
,
,
#END
COURSE:Easy
LEVEL:3
BALLOON:30,30
SCOREINIT:1000
SCOREDIFF:450
#START
3003,
,
1,
1,
1,
01,
1011,
,
4,
02,
2022,
,
1,
01,
500000000000000000000000000000000000000000000008,
,
,//17
#GOGOSTART
1212,
1015,
000000000000000000000000000000000000000000000008,
,
2121,
2025,
000000000000000000000000000000000000000000000008,
,
1210,
,
1210,
,
1212,
1015,
000000000000000000000000000000000008000000000000,
0202,//33
#GOGOEND
22,
0202,
22,
0202,
22,
5,
000000000000000000000008000000000000000000000000,
0007,//41
#GOGOSTART
,
,
,
00000800,
12,
1011,
12,
1011,
12,
1011,
12,
1011,
12,
1011,//55
#GOGOEND
9,
,
,
9,
8,
,
,
,
#END