Files
TJA-by-song-no/tja/74.tja
2026-03-04 23:59:27 +09:00

630 lines
7.3 KiB
Plaintext

//TJADB Project
TITLE:Shiro Neko Caramel Mugen no Wata-ame
TITLEJA:白猫きゃらめる夢幻のわたあめ
SUBTITLE:--Mirai feat. Keiori Aihara
SUBTITLEJA:
BPM:144
WAVE:Shiro Neko Caramel Mugen no Wata-ame.ogg
OFFSET:-1.900
DEMOSTART:56.058
//shinuchi: 5430/3280/2140/1510/940
COURSE:Edit
LEVEL:9
BALLOON:40,7
SCOREINIT:330,940
SCOREDIFF:73
#START
#BARLINEOFF
#MEASURE 2/4
0,
#BARLINEON
#MEASURE 4/4
1202121022112210,
1202211021112110,
1202121022112210,
1202211021112070,
0,
00000008,
2211222211112222,
1122112211112220, //9
1212112011221120,
1122102212112010,
2220402204022040,
1202121012012120,
1212112011221210,
1120211212112010,
1110303030111030,
1202121012012120, //17
1212112010221210,
2220402204022040,
4040222022022040,
0000401012012120,
1212112021121210,
1110303030111030,
3030111011011030,
0000302012012120, //25
1201222211112222,
1122120210121022,
1020122170000080,
1021011202121022,
1212112012101122,
1101202122112210,
1211212111212121,
2212112211121120, //33
#GOGOSTART
1011102210111020,
1112111211121112,
1022102110221020,
2221222122212221,
2021101210211020,
1122112211221122,
1012101120121020,
2211221122112211, //41
2011102210111020,
1112111211121112,
1022102110221020,
2221222122212221,
2021101210211020,
1122112211221122,
1012101120121060,
000000000000000000000000000000000000000008000000, //49
#GOGOEND
1022112111201212,
1120121121012112,
1222121122112022,
1012112212121122,
1212112021121122,
1211221121212011,
2221112221112210,
1112101121221122, //57
#GOGOSTART
1011102210111020,
1112111211121112,
1022102110221020,
2221222122212221,
2021101210211020,
1122112211221122,
1012101120121020,
2211221122112211, //65
2011102210111020,
1112111211121112,
1022102110221020,
2221222122212221,
2021101210211020,
1122112211221122,
1012101120121020,
1010120211112222, //73
#GOGOEND
1212112010221210,
2121222122122121,
2221212212122120,
0000404012012120,
1212112021121210,
1212111211211212,
1112121212111210,
#SCROLL 2
0000333001121212,
202020200000500000000008000000000000000000000000,
0,
0, //84
#END
COURSE:Oni
LEVEL:7
BALLOON:5,5,13
SCOREINIT:480,1570
SCOREDIFF:118
#START
#BARLINEOFF
#MEASURE 2/4
0,
#BARLINEON
#MEASURE 4/4
1000201000112000,
2010001010222010,
1000201000112000,
2010001020221020,
1000201000112000,
2010001020222010,
1000201000112000,
21014040, //9
1001101011101020,
1000101117000800,
2220202202022020,
1202102012021020,
1122201011102020,
1000101117000800,
1110101010111010,
1202101012021020, //17
1110201010121200,
2220202202022020,
2020222022022020,
1000200012021020,
1110201011221200,
1110101010111010,
1010111011011010,
2000100021021020, //25
1000200010112000,
1000200011201200,
1011200010700000,
00080202,
1011201010112011,
1011201010112020,
1011202010112210,
1011202030003000, //33
#GOGOSTART
1000200010112010,
1000200011201200,
1000200010112010,
1000200010112000,
1000200010112010,
1000200011201200,
1000200010112010,
1233, //41
1000200010112010,
1000200011201200,
1000200010112010,
1000200011201020,
1010200010112010,
1011202011201200,
10201126,
000000000000000000000000000000000008000000000000, //49
#GOGOEND
1000200010112010,
2000100020221010,
1000200011202010,
1000200010112000,
1000200011122010,
1110202010111000,
1112221112202010,
2221112221011220, //57
#GOGOSTART
1010200010112010,
1011201010112000,
2000100020221020,
2022102020221000,
1000200010112010,
1011201010112000,
1010202010112010,
1233, //65
1010202010112010,
1011201010112000,
2020100010112010,
1011201010112000,
1010200010112010,
1011201010112000,
1011202000102060,
000000000000000000000000000000000008000000000000, //73
#GOGOEND
1001201010122200,
2020222022022020,
2220202202022020,
1000202012021020,
1120201011221200,
1010111011011010,
1110101010111010,
2000111012021020,
#SCROLL 2
222200300000000000000000,
#SCROLL 3
0,
#SCROLL 4
0, //84
#END
COURSE:Hard
LEVEL:6
BALLOON:4,4,11
SCOREINIT:550,2270
SCOREDIFF:138
#START
#BARLINEOFF
#MEASURE 2/4
0,
#BARLINEON
#MEASURE 4/4
10210120,
21012020,
10210120,
21012012,
10210120,
21012020,
10210120,
21004040, //9
1001101010101000,
100000000000100000100100700000000000008000000000,
2020202002002000,
1002200010022000,
1001101010101020,
000000000000100000100100700000000000008000000000,
1110100010111000,
1002200010022000, //17
1001101010101000,
2020202002002000,
22222020,
1000200010022000,
1110100010202000,
1110100010111000,
1000111010001000,
2000100020022000, //25
10201120,
1000200010200200,
10201700,
00080202,
10201120,
1000200010200200,
10201120,
1233, //33
#GOGOSTART
1000100010111000,
1000200010200200,
1000100010111000,
1000200010111000,
1000200010111000,
1000200010200200,
1000100010111010,
1233, //41
1000200010111000,
1000200010200200,
1000100010111000,
10201202,
1010100010111000,
1000200010200200,
10101116,
000000000000000000000000000000000008000000000000, //49
#GOGOEND
10201120,
2000100020111000,
10201120,
1000200010111000,
10201120,
1000200010111000,
3004003004003000,
600000000000000000000000000000000008000000000000, //57
#GOGOSTART
1000100010111000,
10201120,
1000100010111000,
1000200010111000,
1000200010111000,
10201120,
1000100010111010,
1233, //65
1010200010111000,
10201120,
1010200010111000,
10201120,
1010200010111000,
10201120,
11200116,
000000000000000000000000000000000008000000000000, //73
#GOGOEND
1001101000102000,
2020222020002000,
2220202020002000,
0000202010011000,
1110202011101000,
1010111010001000,
1110100010111010,
2000111010011020,
0300,
0,
0, //84
#END
COURSE:Normal
LEVEL:5
BALLOON:4,4,2,6
SCOREINIT:610,3530
SCOREDIFF:175
#START
#BARLINEOFF
#MEASURE 2/4
0,
#BARLINEON
#MEASURE 4/4
10010010,
01002020,
10010010,
01001000,
10010010,
01002020,
10010010,
0044, //9
10101110,
100000000000700000000000000000080000000000000000,
20222020,
1210,
10111010,
100000000000700000000000000000080000000000000000,
10111010,
1210, //17
10111000,
20222000,
20222020,
1210,
1178,
10101110,
10111010,
2300, //25
10201110,
1210,
1270,
000000000000000000080000000000000000000000000000,
1210,
1210,
10201110,
1033, //33
#GOGOSTART
10101111,
0210,
10101111,
0210,
10101111,
0120,
10101111,
0033, //41
10101111,
0210,
10101111,
0210,
11101020,
10111000,
10101006,
000000000000000000000000000008000000000000000000, //49
#GOGOEND
1210,
2120,
1210,
10111000,
1210,
1210,
30030000,
40040000, //57
#GOGOSTART
10101111,
0210,
10101111,
0210,
10201111,
0120,
11101000,
1230, //65
11102010,
10221000,
11102010,
11201000,
10101110,
1210,
10200006,
000000000000000000000000000008000000000000000000, //73
#GOGOEND
10111010,
22202000,
22202020,
0210,
11201000,
10111010,
11101110,
20111020,
0300,
0,
0, //84
#END
COURSE:Easy
LEVEL:3
BALLOON:3,3,2,4
SCOREINIT:590,5840
SCOREDIFF:193
#START
#BARLINEOFF
#MEASURE 2/4
0,
#BARLINEON
#MEASURE 4/4
10010010,
01001000,
10010010,
01001000,
10010010,
01001000,
10010010,
03, //9
1110,
000000000000700000000000000000080000000000000000,
2202,
11,
1110,
000000000000700000000000000000080000000000000000,
1110,
12, //17
1110,
2220,
2220,
1200,
1078,
1011,
11,
0300, //25
11,
1110,
17,
000000000000000000080000000000000000000000000000,
11,
1110,
11,
3, //33
#GOGOSTART
1110,
1,
1110,
1,
1110,
1,
1110,
3, //41
1120,
1,
1120,
1,
1120,
1,
10102006,
000000000000000000000000000008000000000000000000, //49
#GOGOEND
12,
21,
12,
1110,
12,
1110,
3,
4, //57
#GOGOSTART
1120,
11,
1120,
11,
1120,
11,
1120,
13, //65
1120,
12,
1120,
12,
1120,
12,
10102006,
000000000000000000000000000008000000000000000000, //73
#GOGOEND
11,
2220,
2220,
0200,
12,
1110,
1110,
0100,
0300,
0,
0, //84
#END