Files
TJA-by-song-no/tja/755.tja
2026-03-04 23:59:27 +09:00

413 lines
5.6 KiB
Plaintext
Raw Permalink Blame History

This file contains ambiguous Unicode characters
This file contains Unicode characters that might be confused with other characters. If you think that this is intentional, you can safely ignore this warning. Use the Escape button to reveal them.
//TJADB Project
TITLE:Marisa Stole the Precious Thing
TITLEJA:魔理沙は大変なものを盗んでいきました
SUBTITLE:--IOSYS [ARM & Yuuno Yoshimi] feat. Karin Fujisaki/Touhou Project
SUBTITLEJA:東方Projectアレンジ ARM夕野ヨシミ(IOSYS) feat.藤咲かりん
BPM:170
WAVE:Marisa Stole the Precious Thing.ogg
OFFSET:-0.183
DEMOSTART:45.369
COURSE:Oni
LEVEL:9
SCOREINIT:360
SCOREDIFF:90
#START
1001001010001000,
1001001010101000,
1001001010001000,
1001001020101120,
1001201010201212,
1001201010201212,
1001201010201210,
4030403011211022,
1022201022201022,
2010222030304000,
2011102011102011,
1020111030304000,
1022201022201022,
2010222030304000,
1102102010221120,
1020102012121212,
1022102011201022,
1020112030403000,
2011201022102011,
2010221030304000,
1022102011201022,
1020112030403000,
1111111111111111,
1111111112221222,
12020202,
02020202,
02020202,
0020002020101120,
1001201010201212,
1001201010201212,
1001201010201212,
1111222211112222,
1020112010201120,
1020112010201122,
1020112010201120,
100000200000100100200000500000000000000008000000,
1020112010201120,
1020112010201122,
1020112010201120,
100000200000100100200000500000000000000008000000,
2220222022202220,
2220222022202220,
1220122012201220,
1220122012201220,
1120112011201120,
2210221022102210,
1122112012211220,
1112221112221122,
#GOGOSTART
1020121020120022,
1020121020120020,
10403304,
0030300040002011,
1020102210211020,
1020102210211020,
12212212,
2010001010211022,
1020121022120022,
1020121022120020,
10403304,
0010221020121020,
1020102110221120,
1020102210211120,
500000000000000000000000000000000000000008000000,
#GOGOEND
1122121211221211,
#GOGOSTART
1022102010210020,
1011221122122020,
1022102010220020,
1120112212121122,
1022102010210020,
1022102010221110,
2011201020112010,
2011201122121011,
1022102010210020,
1011221122122020,
1022102010220020,
1120112212121122,
1022102010210020,
1022102010221110,
2011201020112010,
2011201122122012,
12020202,
1022102210221122,
#GOGOEND
1,
#END
COURSE:Hard
LEVEL:6
BALLOON:23
SCOREINIT:380
SCOREDIFF:120
#START
1001001010001000,
1001001010101000,
1001001010001000,
1001001020101020,
1001001010101000,
1001001010101000,
1001001010101000,
400000300000400000300000600000000000000008000000,
11122211,
12221110,
11122211,
12221110,
11122211,
12221110,
10201120,
100000200000100000200000500000000000000008000000,
11211211,
21121120,
21121121,
12112110,
11211211,
21121120,
7,
08,
12020202,
02020202,
02020202,
02022112,
1001101010101000,
1001101010101000,
1001101010101000,
500000000000000000000000000000000000000008000000,
12121212,
12121212,
12121212,
100000200000100000200000500000000000000008000000,
12121212,
12121212,
12121212,
100000200000100000200000500000000000000008000000,
12221222,
12221222,
11121112,
11121112,
11221122,
22112211,
11221122,
600000000000000000000000000000000008000000100100,//48
#GOGOSTART
1000200010200011,
10201202,
10403304,
03304022,
10201212,
10011020,
10011011,
2010001010011010,
1000200010200011,
10201202,
10403304,
0010100020020020,
10011020,
10011022,
500000000000000000000000000000000000000000000008,//63
#GOGOEND
,//64
#GOGOSTART
3000300040040040,
500000000000000000000000000000000000000008000000,
4000400030030030,
500000000000000000000000000000000000000008000000,
1000100010020010,
0011101020002000,
4000400030040030,
,
3000300040040040,
500000000000000000000000000000000000000008000000,
4000400030030030,
500000000000000000000000000000000000000008000000,
1000100010020010,
0011101020002000,
10112000,
500000000000000000000000000000000000000000000008,
02020202,
1020102010111011,//82
#GOGOEND
1,
#END
COURSE:Normal
LEVEL:5
BALLOON:15,25
#START
,
,
,
,
01,
01,
01,
3330,
10010010,
01001110,
10010010,
01001110,
10010010,
01001110,
1212,
100000000000100000000000500000000008000000000000,
10010010,
01002220,
10010010,
01002220,
10010010,
01002220,
7,
08,
3,
,
,
,
10101110,
10101110,
10101110,
500000000000000000000000000000000008000000000000,
1111,
1111,
1111,
1140,
1111,
1111,
1111,
1140,
2222,
2222,
1111,
1111,
2222,
1111,
4433,
600000000000000000000000000000000008000000000000,//48
#GOGOSTART
30000001,
12,
10404404,
04404010,
1022,
10010010,
20020020,
12,
30000001,
12,
10404404,
02202000,
9,
,
0900,//63
#GOGOEND
8,//64
#GOGOSTART
3000300030030030,
500000000000000000000000000000000008000000000000,
4000400040040040,
500000000000000000000000000000000008000000000000,
1000100010010010,
01011020,
3000300040040040,
,
3000300030030030,
500000000000000000000000000000000008000000000000,
4000400040040040,
500000000000000000000000000000000008000000000000,
1000100010010010,
01011020,
33,
500000000000000000000000000000000000000000000008,
,
1111,//82
#GOGOEND
3,
#END
COURSE:Easy
LEVEL:4
BALLOON:11,20
#START
,
,
,
,
01,
01,
01,
3330,
10010010,
01003000,
10010010,
01003000,
10010010,
01003000,
1111,
500000000000000000000000000008000000000000000000,
10010010,
01004000,
10010010,
01004000,
10010010,
01004000,
7,
08,
3,
,
,
,
1011,
1011,
1011,
500000000000000000000000000008000000000000000000,
1111,
1111,
1111,
1130,
1111,
1111,
1111,
1130,
5,
000000000000000000000000000000000008000000000000,
5,
000000000000000000000000000008000000000000000000,
1111,
1111,
3333,
600000000000000000000000000008000000000000000000,//48
#GOGOSTART
3,
1,
00303003,
03003000,
1011,
10010010,
10010010,
12,
3,
1,
00303003,
02,
9,
,
0900,//63
#GOGOEND
8,//64
#GOGOSTART
30303003,
500000000000000000000000000008000000000000000000,
30303003,
500000000000000000000000000008000000000000000000,
10101001,
01002000,
500000000000000000000000000000000000000000000008,
,
30303003,
500000000000000000000000000008000000000000000000,
30303003,
500000000000000000000000000008000000000000000000,
10101001,
01002000,
33,
500000000000000000000000000000000000000000000008,
,
1111,//82
#GOGOEND
3,
#END