Files
TJA-by-song-no/tja/778.tja
2026-03-04 23:59:27 +09:00

818 lines
8.4 KiB
Plaintext

//TJADB Project
TITLE:λ7708
TITLEJA:λ7708
SUBTITLE:--Taiji
SUBTITLEJA:Taiji
BPM:225
WAVE:λ7708.ogg
OFFSET:-1.271
DEMOSTART:9.793
COURSE:Oni
LEVEL:10
BALLOON:38
SCOREINIT:430
SCOREDIFF:90
#START
#GOGOSTART
2210102000101020,
1110201000102020,
2210102000101020,
1120201000102020,
3030304000221020,
3040304000221020,
100200202200100200202200,//7
#GOGOEND
100
#SCROLL 0.98
200
#SCROLL 0.95
100
#SCROLL 0.98
200
#SCROLL 1
100
#SCROLL 1.03
200
#SCROLL 1.05
100
#SCROLL 1.03
200
#SCROLL 1
102
#SCROLL 0.98
010
#SCROLL 0.95
200
#SCROLL 0.98
000
#SCROLL 1
300000000000,
#GOGOSTART
100202100200
#SCROLL 0.75
300
#SCROLL 1
202100200,
100202100200
#SCROLL 0.75
300
#SCROLL 1
202100200,
100202100200
#SCROLL 0.75
300
#SCROLL 1
202100200,
101201202102,
100202100200
#SCROLL 0.75
300
#SCROLL 1
202100200,
100202100200
#SCROLL 0.75
300
#SCROLL 1
202100200,
100202100200
#SCROLL 0.75
300
#SCROLL 1
202100200,
100010200010200020111020,
100202100200
#SCROLL 0.75
300
#SCROLL 1
202100200,
100202100200
#SCROLL 0.75
300
#SCROLL 1
202100200,
100202100200
#SCROLL 0.75
300
#SCROLL 1
202100200,
101201202112,
101110
#SCROLL 0.75
3
#SCROLL 1
02222,
101110
#SCROLL 0.75
3
#SCROLL 1
02101,//22
#SCROLL 0.75
#GOGOEND
10210120,
1020100022201020,
100200200100100200101020,
7,
,
08,
#SCROLL 1
100000101000100020200100100200200200100200200200,//29
#GOGOSTART
1000201010221010,
1021101010202000,
1000201010212010,
2022101020101000,
000221102102,
20000012,
200100200000200000102020,
100020100200100000000000,
3000201010221010,
1021101010202000,
1000201010212010,
2022101020101000,
000221102102,
200000
#SCROLL 0.75
22,//43
#GOGOEND
200200200222,
200000200000//45-1
#SCROLL 2
#GOGOSTART
111111111111,//45-2
#SCROLL 1
#GOGOEND
2
#SCROLL 0.98
0
#SCROLL 0.95
2
#SCROLL 0.98
0,
#SCROLL 1
2
#SCROLL 1.03
2
#SCROLL 1.05
0
#SCROLL 1.03
2,
#SCROLL 1
0000
#SCROLL 0.98
2000
#SCROLL 0.95
2000
#SCROLL 0.98
0002,
#SCROLL 1
2
#SCROLL 1.03
0
#SCROLL 1.05
2
#SCROLL 1.03
0,
#SCROLL 1
2
#SCROLL 0.98
0
#SCROLL 0.95
2
#SCROLL 0.98
2,
#SCROLL 1
0
#SCROLL 1.03
2
#SCROLL 1.05
0
#SCROLL 1.03
2,
#SCROLL 1
2000
#SCROLL 0.98
0002
#SCROLL 0.95
2000
#SCROLL 0.98
0000,
#SCROLL 0.75
101001202100,
101001201102,
101001202102,
#SCROLL 1
101101201101,
#SCROLL 0.5
200020001000100020002000
#SCROLL 1.25
100000100000100000200000,
200200//58
#SCROLL 1
#GOGOSTART
300200100202100200,
100202100200100202100200,
100202100200100202100200,
101201202102,
100202100200100202100200,
100202100200100202100200,
100202100200100202100200,
100010200010222020111000,
300202100200100202100200,
100202100200100202100200,
100202100200100202100200,
101201202112,
100202100200100202100200,
100202100200100202100200,
100202100200100202100200,
100010200010200020101120,//73
#GOGOEND
02020202,
000200022200000110000200,
000200000200022200000100,
02020202,//77
#GOGOSTART
101201201010,
202101102020,
101201102020,
201201201010,
101201201010,
#BPMCHANGE 228
200020100010100020002110,
#BPMCHANGE 231
100010200010200011101000,
#BPMCHANGE 234
100010200010100020002110,
#BPMCHANGE 237
100010200010200011101000,
#BPMCHANGE 240
100011200010200010001000,
#BPMCHANGE 243
100011201010101011201010,
#BPMCHANGE 246
100010001010200010001010200200200200200200200200,//89
#BPMCHANGE 249
#GOGOEND
,//90
#BPMCHANGE 250.5
#GOGOSTART
1111111111111111,
#BARLINEOFF
1111111111111111,
1111111111111111,
1111111111111111,
#MEASURE 1/8
#BPMCHANGE 247.85
#SCROLL 1.01
11,
#MEASURE 3/16
#BPMCHANGE 226.23
#SCROLL 1.1
111,
#MEASURE 2/4
#BPMCHANGE 224.5
#SCROLL 1.11
111111,
#MEASURE 1/8
#BPMCHANGE 168.97
#SCROLL 1.48
11,
#MEASURE 3/16
#BPMCHANGE 112.42
#SCROLL 2.22
111,
#MEASURE 1/8
#BPMCHANGE 84.34
#SCROLL 2.97
11,
#BPMCHANGE 67.51
#SCROLL 3.71
11,
#MEASURE 1/16
#BPMCHANGE 51.93
#SCROLL 4.82
1,
#BPMCHANGE 33.56
#SCROLL 7.46
1,
#MEASURE 1/8
#BPMCHANGE 137.73
#SCROLL 1.81
11,
#GOGOEND
#END
COURSE:Hard
LEVEL:8
BALLOON:8,26,5,65
#START
#GOGOSTART
21120122,
11220112,
21120122,
11220112,
33340212,
33340212,
12221222,//7
#GOGOEND
7008,//8
#GOGOSTART
10101212,
10101212,
10101212,
102201102201,
10101212,
10101212,
10101212,
102201102201,
10101212,
10101212,
10101212,
102201102201,
101100202200,
202200202200,//22
#GOGOEND
10110220,
12101221,
12211221,
7,
,
08,
500000000000000000000000000000000000000008000000,//29
#GOGOSTART
30201221,
12211220,
10211221,
12211220,
000222201102,
20000012,
200100200000200000202020,
20121000,
30201221,
12211220,
10211221,
12211220,
000222201102,
20000022,//43
#GOGOEND
200200200222,
200000000000200000000000//45-1
#GOGOSTART
500000000000000008000000,//45-2
#GOGOEND
22,
2202,
0220,
22,
2022,
0202,
22,
101002202200,
101002202200,
101002202200,
102201102200,
222222700000,
80//58
#GOGOSTART
301212,
10101212,
10101212,
102201102201,
10101212,
10101212,
10101212,
102201100200,
30101212,
10101212,
10101212,
102201102201,
10101212,
10101212,
10101212,
102201102201,//73
#GOGOEND
02020202,
02020102,
02020201,
02020202,//77
#GOGOSTART
101101101010,
202202202020,
101101101010,
202202202020,
101101101010,
#BPMCHANGE 228
202202202020,
#BPMCHANGE 231
101101101010,
#BPMCHANGE 234
202202202020,
#BPMCHANGE 237
101101101010,
#BPMCHANGE 240
202201101010,
#BPMCHANGE 243
102201102201,
#BPMCHANGE 246
102201102020,//89
#BPMCHANGE 249
#GOGOEND
,//90
#BPMCHANGE 250
#GOGOSTART
7,
#BARLINEOFF
,
,
,
#MEASURE 3/4
0
#BPMCHANGE 210
#SCROLL 1.18
00
#BPMCHANGE 145
#SCROLL 1.71
000,
00
#BPMCHANGE 120
#SCROLL 2.066
000
#BPMCHANGE 80
#SCROLL 3.1
00
#BPMCHANGE 60
#SCROLL 4.133
00
#BPMCHANGE 40
#SCROLL 6.2
8
#BPMCHANGE 150
#SCROLL 1.653
11,//96
#GOGOEND
,
#END
COURSE:Normal
LEVEL:7
BALLOON:5,17,4,42
#START
#GOGOSTART
30030000,
40040000,
30030000,
40040000,
11110000,
22220000,
11112222,//7
#GOGOEND
7008,//8
#GOGOSTART
10101011,
10101011,
10101011,
1122,
10101011,
10101011,
10101011,
1122,
30101011,
10101011,
10101011,
1122,
1122,
1122,//22
#GOGOEND
1,
1022,
11,
7,
,
08,
500000000000000000000000000000000008000000000000,//29
#GOGOSTART
3011,
1022,
1011,
1022,
0500,
08,
1011,
12,
3011,
1022,
1011,
1022,
0500,
08,//43
#GOGOEND
22,
2//45-1
#GOGOSTART
3,//45-2
#GOGOEND
22,
2202,
0220,
22,
2022,
0202,
22,
101000200200,
101000200200,
101000200200,
500000000000000000000000000000000008000000000000,
2270,
80//58
#GOGOSTART
301011,
10101011,
10101011,
1122,
10101011,
10101011,
10101011,
1120,
30101011,
10101011,
10101011,
1122,
10101011,
10101011,
10101011,
1122,//73
#GOGOEND
02020202,
02020202,
02020202,
02020202,//77
#GOGOSTART
100100101010,
100100202020,
100100101010,
100100202020,
100100101010,
#BPMCHANGE 228
100100202020,
#BPMCHANGE 231
100100101010,
#BPMCHANGE 234
100100202020,
#BPMCHANGE 237
100100101010,
#BPMCHANGE 240
100100202020,
#BPMCHANGE 243
100100101010,
#BPMCHANGE 246
100100202020,//89
#BPMCHANGE 249
#GOGOEND
,//90
#BPMCHANGE 250
#GOGOSTART
7,
#BARLINEOFF
,
,
,
#MEASURE 3/4
0
#BPMCHANGE 210
#SCROLL 1.18
00
#BPMCHANGE 145
#SCROLL 1.71
000,
00
#BPMCHANGE 120
#SCROLL 2.066
000
#BPMCHANGE 80
#SCROLL 3.1
00
#BPMCHANGE 60
#SCROLL 4.133
00
#BPMCHANGE 40
#SCROLL 6.2
8
#BPMCHANGE 150
#SCROLL 1.653
03,//96
#GOGOEND
,
#END
COURSE:Easy
LEVEL:5
BALLOON:5,14,3,35
#START
#GOGOSTART
30030000,
40040000,
30030000,
40040000,
1100,
2200,
12,//7
#GOGOEND
7008,//8
#GOGOSTART
3111,
1111,
1111,
500000000000000000000000000008000000000000000000,
1111,
1111,
1111,
500000000000000000000000000008000000000000000000,
3111,
1111,
1111,
500000000000000000000000000008000000000000000000,
1110,
2220,//22
#GOGOEND
1,
12,
1,
7,
,
08,
,//29
#GOGOSTART
3011,
12,
1011,
12,
0500,
000000000000000000000008000000000000000000000000,
1011,
12,
3011,
12,
1011,
12,
0500,
000000000000000000000008000000000000000000000000,//43
#GOGOEND
22,
2//45-1
#GOGOSTART
3,//45-2
#GOGOEND
1,
1001,
01,
11,
01,
0100,
11,
12,
12,
12,
500000000000000000000000000008000000000000000000,
37,
8//58
#GOGOSTART
311,
1111,
1111,
500000000000000000000000000008000000000000000000,
1111,
1111,
1111,
500000000000000000000000000008000000000000000000,
3111,
1111,
1111,
500000000000000000000000000008000000000000000000,
1111,
1111,
1111,
500000000000000000000000000000000000000000000008,//73
#GOGOEND
,
,
,
,//77
#GOGOSTART
1110,
1120,
1110,
1120,
1110,
#BPMCHANGE 228
1120,
#BPMCHANGE 231
1110,
#BPMCHANGE 234
1120,
#BPMCHANGE 237
1111,
#BPMCHANGE 240
1111,
#BPMCHANGE 243
1111,
#BPMCHANGE 246
1111,//89
#BPMCHANGE 249
#GOGOEND
7,//90
#BPMCHANGE 250
#GOGOSTART
,
#BARLINEOFF
,
,
,
#MEASURE 3/4
0
#BPMCHANGE 210
#SCROLL 1.18
00
#BPMCHANGE 145
#SCROLL 1.71
000,
00
#BPMCHANGE 120
#SCROLL 2.066
000
#BPMCHANGE 80
#SCROLL 3.1
00
#BPMCHANGE 60
#SCROLL 4.133
00
#BPMCHANGE 40
#SCROLL 6.2
8
#BPMCHANGE 150
#SCROLL 1.653
03,//96
#GOGOEND
,
#END