633 lines
5.9 KiB
Plaintext
633 lines
5.9 KiB
Plaintext
//TJADB Project
|
|
TITLE:Trust Game
|
|
TITLEJA:トラストゲーム
|
|
SUBTITLE:--Masayuki Hasuo feat. SaChi a.k.a. Harineko
|
|
SUBTITLEJA:feat.SaChi(harineko)
|
|
BPM:192
|
|
WAVE:Trust Game.ogg
|
|
OFFSET:-1.986
|
|
DEMOSTART:44.781
|
|
|
|
//shinuchi: 4640/3510/2340/1480
|
|
|
|
COURSE:Oni
|
|
LEVEL:9
|
|
BALLOON:
|
|
SCOREINIT:500,1520
|
|
SCOREDIFF:128
|
|
|
|
#START
|
|
#MEASURE 3/4
|
|
0,
|
|
0,
|
|
0,
|
|
0,
|
|
121212,
|
|
#MEASURE 4/4
|
|
1020102222211111, //6
|
|
|
|
#MEASURE 3/4
|
|
200020021020,
|
|
121202,
|
|
100020021020,
|
|
121202,
|
|
|
|
100020021020,
|
|
102010201220,
|
|
100020021020,
|
|
102011202020, //14
|
|
|
|
122101,
|
|
212121,
|
|
221202,
|
|
001022121000,
|
|
|
|
122101,
|
|
212140,
|
|
102102,
|
|
002022121000, //22
|
|
|
|
122101,
|
|
212121,
|
|
221202,
|
|
001022121000,
|
|
|
|
122101,
|
|
212122,
|
|
102102,
|
|
121022, //30
|
|
|
|
122,
|
|
100022112020,
|
|
122,
|
|
100022121020,
|
|
|
|
122,
|
|
100022112020,
|
|
122,
|
|
100202, //38
|
|
|
|
102102,
|
|
100000111100100200,
|
|
102210201020,
|
|
100000202020200000100000000200000000,
|
|
|
|
100200101200,
|
|
102102101200,
|
|
102102101220,
|
|
111120001022, //46
|
|
|
|
#MEASURE 4/4
|
|
#GOGOSTART
|
|
1010202211102020,
|
|
1010202112102020,
|
|
1010202211105000,
|
|
000000000000000000000008000000000000200000000000,
|
|
|
|
1010202211102020,
|
|
1010202112102020,
|
|
11203030,
|
|
4000400040111111, //54
|
|
|
|
1010202212102020,
|
|
1010202121102020,
|
|
1010202212105000,
|
|
000000000000000000000008000000000000100000200000,
|
|
|
|
10210210,
|
|
2010002012112000,
|
|
11211211,
|
|
2110101020112222, //62
|
|
#GOGOEND
|
|
|
|
#MEASURE 3/4
|
|
100020100022,
|
|
102021,
|
|
122102,
|
|
102100,
|
|
|
|
102110202110,
|
|
200021202120,
|
|
101210201210,
|
|
201211200000, //70
|
|
|
|
101201202,
|
|
102102102,
|
|
101201202,
|
|
102102102,
|
|
|
|
101211202,
|
|
102112102,
|
|
101211202,
|
|
100202, //78
|
|
|
|
102102,
|
|
100020111020,
|
|
101120201120,
|
|
102211221120,
|
|
|
|
112020101020,
|
|
100020102022,
|
|
101210111220,
|
|
400022222220, //86
|
|
|
|
#MEASURE 4/4
|
|
#GOGOSTART
|
|
1010202211102020,
|
|
1010202112102020,
|
|
1010202211104000,
|
|
600000000000000000000008000000000000200000000000,
|
|
|
|
1010202211102020,
|
|
1010202112102020,
|
|
11203040,
|
|
3000300040111111, //94
|
|
|
|
1010202212102020,
|
|
1010202121102020,
|
|
1010202212104000,
|
|
600000000000000000000008000000000000100000200000,
|
|
10210210,
|
|
2010002012112000,
|
|
|
|
#MEASURE 3/4
|
|
112112,
|
|
111020111020,
|
|
111120112120,
|
|
111120121210, //104
|
|
#GOGOEND
|
|
|
|
04,
|
|
0,
|
|
0,
|
|
0,
|
|
0,
|
|
0, //110
|
|
#END
|
|
|
|
|
|
COURSE:Hard
|
|
LEVEL:6
|
|
BALLOON:8
|
|
SCOREINIT:580,2480
|
|
SCOREDIFF:155
|
|
|
|
#START
|
|
#MEASURE 3/4
|
|
0,
|
|
0,
|
|
0,
|
|
0,
|
|
121212,
|
|
#MEASURE 4/4
|
|
12120000, //6
|
|
|
|
#MEASURE 3/4
|
|
102012,
|
|
110100,
|
|
102012,
|
|
120200,
|
|
|
|
102012,
|
|
110100,
|
|
102012,
|
|
120220, //14
|
|
|
|
102101,
|
|
010202,
|
|
102101,
|
|
012210,
|
|
|
|
102101,
|
|
010140,
|
|
102101,
|
|
012210, //22
|
|
|
|
102101,
|
|
212120,
|
|
102101,
|
|
012210,
|
|
|
|
102101,
|
|
212210,
|
|
102102,
|
|
101022, //30
|
|
|
|
122,
|
|
102122,
|
|
122,
|
|
102112,
|
|
|
|
122,
|
|
102122,
|
|
122,
|
|
100202, //38
|
|
|
|
102102,
|
|
102122,
|
|
102102,
|
|
1022,
|
|
|
|
1122,
|
|
1122,
|
|
7,
|
|
8, //46
|
|
|
|
#MEASURE 4/4
|
|
#GOGOSTART
|
|
11201120,
|
|
11221120,
|
|
11202050,
|
|
000000000000000000000008000000000000200000000000,
|
|
|
|
10221120,
|
|
10221120,
|
|
1233,
|
|
4440, //54
|
|
|
|
11201120,
|
|
11221120,
|
|
11202050,
|
|
000000000000000000000008000000000000100000200000,
|
|
|
|
10210210,
|
|
500000000000000000000008000000400000000000000000,
|
|
10210210,
|
|
200000600000000000000008000000000000000000000000, //62
|
|
#GOGOEND
|
|
|
|
#MEASURE 3/4
|
|
102102,
|
|
122,
|
|
122102,
|
|
102100,
|
|
|
|
121220,
|
|
201212,
|
|
102211,
|
|
211200, //70
|
|
|
|
100101100,
|
|
100202200,
|
|
100101100,
|
|
100202200,
|
|
|
|
100101100,
|
|
100202200,
|
|
100101100,
|
|
100202, //78
|
|
|
|
102102,
|
|
102122,
|
|
102102,
|
|
100202,
|
|
|
|
102122,
|
|
102122,
|
|
333,
|
|
4, //86
|
|
|
|
#MEASURE 4/4
|
|
#GOGOSTART
|
|
11201120,
|
|
11221120,
|
|
11202040,
|
|
600000000000000000000008000000000000200000000000,
|
|
|
|
10221120,
|
|
10221120,
|
|
1234,
|
|
3340, //94
|
|
|
|
11201120,
|
|
11221120,
|
|
11202040,
|
|
600000000000000000000008000000000000100000200000,
|
|
10210210,
|
|
500000000000000000000008000000400000000000000000,
|
|
|
|
#MEASURE 3/4
|
|
102102,
|
|
102100,
|
|
112112,
|
|
100000100000200000600000000000000008, //104
|
|
#GOGOEND
|
|
|
|
04,
|
|
0,
|
|
0,
|
|
0,
|
|
0,
|
|
0, //110
|
|
#END
|
|
|
|
|
|
COURSE:Normal
|
|
LEVEL:6
|
|
BALLOON:9,7,9
|
|
SCOREINIT:710,3930
|
|
SCOREDIFF:205
|
|
|
|
#START
|
|
#MEASURE 3/4
|
|
0,
|
|
0,
|
|
0,
|
|
0,
|
|
7,
|
|
#MEASURE 4/4
|
|
00080000, //6
|
|
|
|
#MEASURE 3/4
|
|
101011,
|
|
010100,
|
|
101011,
|
|
020200,
|
|
|
|
101011,
|
|
010100,
|
|
101011,
|
|
020200, //14
|
|
|
|
100101,
|
|
010100,
|
|
110,
|
|
0,
|
|
|
|
100101,
|
|
010100,
|
|
11,
|
|
0, //22
|
|
|
|
100101,
|
|
111,
|
|
11,
|
|
0,
|
|
|
|
100101,
|
|
111,
|
|
11,
|
|
500000000000000008000000000000000000, //30
|
|
|
|
122,
|
|
1,
|
|
122,
|
|
1,
|
|
|
|
122,
|
|
122,
|
|
122,
|
|
1, //38
|
|
|
|
100101,
|
|
12,
|
|
100101,
|
|
12,
|
|
1111,
|
|
1,
|
|
7,
|
|
8, //46
|
|
|
|
#MEASURE 4/4
|
|
#GOGOSTART
|
|
10101110,
|
|
10101110,
|
|
1225,
|
|
000000000000000000000008000000000000000000000000,
|
|
|
|
1212,
|
|
1212,
|
|
1133,
|
|
4440, //54
|
|
|
|
10101110,
|
|
10101110,
|
|
1225,
|
|
000000000000000000000008000000000000000000000000,
|
|
|
|
10110110,
|
|
500000000000000000000008000000000000000000000000,
|
|
30030030,
|
|
000000600000000000000008000000000000000000000000, //62
|
|
#GOGOEND
|
|
|
|
#MEASURE 3/4
|
|
101100,
|
|
122,
|
|
101100,
|
|
12,
|
|
|
|
122,
|
|
122,
|
|
7,
|
|
08, //70
|
|
|
|
111,
|
|
122,
|
|
111,
|
|
122,
|
|
|
|
111,
|
|
122,
|
|
111,
|
|
1, //78
|
|
|
|
100101,
|
|
12,
|
|
100101,
|
|
12,
|
|
|
|
100101,
|
|
12,
|
|
333,
|
|
4, //86
|
|
|
|
#MEASURE 4/4
|
|
#GOGOSTART
|
|
10101110,
|
|
10101110,
|
|
1224,
|
|
600000000000000000000008000000000000000000000000,
|
|
|
|
1212,
|
|
1212,
|
|
1133,
|
|
4440, //94
|
|
|
|
10101110,
|
|
10101110,
|
|
1224,
|
|
600000000000000000000008000000000000000000000000,
|
|
10110110,
|
|
500000000000000000000008000000000000000000000000,
|
|
|
|
#MEASURE 3/4
|
|
202202,
|
|
202200,
|
|
33,
|
|
300000000000000000600000000000000008, //104
|
|
#GOGOEND
|
|
|
|
04,
|
|
0,
|
|
0,
|
|
0,
|
|
0,
|
|
0, //110
|
|
#END
|
|
|
|
|
|
COURSE:Easy
|
|
LEVEL:5
|
|
BALLOON:7,6,7
|
|
SCOREINIT:550,5350
|
|
SCOREDIFF:173
|
|
|
|
#START
|
|
#MEASURE 3/4
|
|
0,
|
|
0,
|
|
0,
|
|
0,
|
|
7,
|
|
#MEASURE 4/4
|
|
00080000, //6
|
|
|
|
#MEASURE 3/4
|
|
1,
|
|
010100,
|
|
1,
|
|
020200,
|
|
|
|
1,
|
|
010100,
|
|
1,
|
|
020200, //14
|
|
|
|
100101,
|
|
010100,
|
|
1,
|
|
0,
|
|
|
|
100101,
|
|
010100,
|
|
2,
|
|
0, //22
|
|
|
|
11,
|
|
111,
|
|
11,
|
|
0,
|
|
|
|
11,
|
|
111,
|
|
22,
|
|
500000000000000008000000000000000000, //30
|
|
|
|
120,
|
|
1,
|
|
120,
|
|
1,
|
|
|
|
120,
|
|
120,
|
|
120,
|
|
1, //38
|
|
|
|
11,
|
|
1,
|
|
11,
|
|
1,
|
|
|
|
22,
|
|
2,
|
|
7,
|
|
8, //46
|
|
|
|
#MEASURE 4/4
|
|
#GOGOSTART
|
|
11,
|
|
1110,
|
|
1225,
|
|
000000000000000000000008000000000000000000000000,
|
|
|
|
1210,
|
|
1210,
|
|
1133,
|
|
4440, //54
|
|
|
|
11,
|
|
1110,
|
|
1225,
|
|
000000000000000000000008000000000000000000000000,
|
|
|
|
10010010,
|
|
500000000000000000000008000000000000000000000000,
|
|
30030030,
|
|
000000600000000000000008000000000000000000000000, //62
|
|
#GOGOEND
|
|
|
|
#MEASURE 3/4
|
|
11,
|
|
122,
|
|
11,
|
|
12,
|
|
|
|
111,
|
|
122,
|
|
7,
|
|
08, //70
|
|
|
|
111,
|
|
1,
|
|
111,
|
|
1,
|
|
|
|
111,
|
|
111,
|
|
111,
|
|
1, //78
|
|
|
|
12,
|
|
1,
|
|
12,
|
|
1,
|
|
|
|
12,
|
|
12,
|
|
333,
|
|
3, //86
|
|
|
|
#MEASURE 4/4
|
|
#GOGOSTART
|
|
11,
|
|
1111,
|
|
1224,
|
|
600000000000000000000008000000000000000000000000,
|
|
|
|
1210,
|
|
1210,
|
|
1133,
|
|
4440, //94
|
|
|
|
11,
|
|
1111,
|
|
1224,
|
|
600000000000000000000008000000000000000000000000,
|
|
10010010,
|
|
500000000000000000000008000000000000000000000000,
|
|
|
|
#MEASURE 3/4
|
|
11,
|
|
11,
|
|
33,
|
|
300000000000000000600000000000000008, //104
|
|
|
|
#GOGOEND
|
|
04,
|
|
0,
|
|
0,
|
|
0,
|
|
0,
|
|
0, //110
|
|
#END |