430 lines
4.6 KiB
Plaintext
430 lines
4.6 KiB
Plaintext
//TJADB Project
|
|
TITLE:Otomushi o Tsukamaero!
|
|
TITLEJA:音虫をつかまえろ!
|
|
SUBTITLE:--KiWi
|
|
SUBTITLEJA:KiWi
|
|
BPM:150
|
|
WAVE:Otomushi o Tsukamaero!.ogg
|
|
OFFSET:-2.106
|
|
DEMOSTART:56.497
|
|
|
|
//shinuchi: 5710/3890/2280/1510
|
|
|
|
COURSE:Oni
|
|
LEVEL:9
|
|
BALLOON:6,17,8
|
|
SCOREINIT:520,1550
|
|
SCOREDIFF:135
|
|
|
|
#START
|
|
0,
|
|
0,
|
|
|
|
#GOGOSTART
|
|
1011201110102011,
|
|
1011201110102011,
|
|
1011201110102010,
|
|
1011201010002011,
|
|
|
|
2011202120112021,
|
|
2011202120112222,
|
|
2011202120112021,
|
|
2011202170008000, //10
|
|
#GOGOEND
|
|
|
|
#BPMCHANGE 148.05
|
|
#SCROLL 1.01
|
|
102100102100,
|
|
#BPMCHANGE 152
|
|
#SCROLL 0.98
|
|
112112100100,
|
|
#BPMCHANGE 150
|
|
#SCROLL 1
|
|
102102102102,
|
|
111202101200,
|
|
|
|
112112112112,
|
|
111222111200,
|
|
111202102102,
|
|
111202101200, //18
|
|
|
|
200111200111,
|
|
211211211211,
|
|
2,
|
|
0,
|
|
|
|
1122,
|
|
3344,
|
|
1212,
|
|
12121020, //26
|
|
|
|
1021122020122110,
|
|
1021122020122110,
|
|
1021211010212110,
|
|
1020102012021122,
|
|
|
|
1212112212121122,
|
|
1212112212121122,
|
|
1111222212221212,
|
|
70000008, //34
|
|
|
|
1102102011021020,
|
|
1102102012021202,
|
|
1102102011021020,
|
|
1102102012021210,
|
|
|
|
1102112011021220,
|
|
1102112012021202,
|
|
1102112011021220,
|
|
1102112012121122, //42
|
|
|
|
1112112011121220,
|
|
1112112012121202,
|
|
1112112011121220,
|
|
1112112070000080,
|
|
|
|
12121212,
|
|
1022102210221022,
|
|
1122112212221222,
|
|
12122022, //50
|
|
|
|
1222122210002000,
|
|
1212122210002000,
|
|
1222122210002000,
|
|
1212121210002020,
|
|
|
|
1222122210102000,
|
|
1212122210102000,
|
|
1222122210102000,
|
|
0004, //58
|
|
|
|
#GOGOSTART
|
|
2011202111212021,
|
|
2011202121112021,
|
|
2011212121112021,
|
|
200000100100200000200000200000202020200000200100,
|
|
|
|
2011201020112020,
|
|
200000101010200000100000200000202020100100200000,
|
|
2011202120112021,
|
|
2211221121212000,
|
|
#GOGOEND
|
|
0,
|
|
#BARLINEOFF
|
|
0, //68
|
|
#END
|
|
|
|
|
|
COURSE:Hard
|
|
LEVEL:6
|
|
BALLOON:5,15,7,13
|
|
SCOREINIT:590,2370
|
|
SCOREDIFF:155
|
|
|
|
#START
|
|
0,
|
|
0,
|
|
|
|
#GOGOSTART
|
|
12121202,
|
|
12121202,
|
|
12121202,
|
|
1022202020002010,
|
|
|
|
21212101,
|
|
2010201020111010,
|
|
21212121,
|
|
21217080, //10
|
|
#GOGOEND
|
|
|
|
#BPMCHANGE 148.05
|
|
#SCROLL 1.01
|
|
101100101100,
|
|
#BPMCHANGE 152
|
|
#SCROLL 0.98
|
|
111100100100,
|
|
#BPMCHANGE 150
|
|
#SCROLL 1
|
|
202202202202,
|
|
202202202200,
|
|
|
|
101100202200,
|
|
111100222200,
|
|
101202101100,
|
|
101202102200, //18
|
|
|
|
100111100111,
|
|
100222200222,
|
|
2,
|
|
0,
|
|
|
|
1122,
|
|
3344,
|
|
1212,
|
|
12121020, //26
|
|
|
|
12122120,
|
|
12122120,
|
|
12211220,
|
|
12121210,
|
|
|
|
1110200011102000,
|
|
1110200011102000,
|
|
1110202011102020,
|
|
70000008, //34
|
|
|
|
1001101010011000,
|
|
1001101010011000,
|
|
1001101010011000,
|
|
1001101010011000,
|
|
|
|
1001101010011010,
|
|
1001101010011010,
|
|
1001101010011010,
|
|
1001101011011000, //42
|
|
|
|
1101101011011000,
|
|
1101101011011000,
|
|
1101101011011000,
|
|
1101101070000080,
|
|
|
|
12121212,
|
|
12121212,
|
|
500000000000000000000000000000000000000008000000,
|
|
12122020, //50
|
|
|
|
12121020,
|
|
11121020,
|
|
12121020,
|
|
1011101010002000,
|
|
|
|
12121120,
|
|
11121120,
|
|
12121120,
|
|
0004, //58
|
|
|
|
#GOGOSTART
|
|
12121212,
|
|
1020102010222020,
|
|
12121212,
|
|
1022202020002010,
|
|
|
|
2010201020102220,
|
|
2010201020111010,
|
|
2010201020102010,
|
|
9000000009008000,
|
|
#GOGOEND
|
|
0,
|
|
#BARLINEOFF
|
|
0, //68
|
|
#END
|
|
|
|
|
|
COURSE:Normal
|
|
LEVEL:5
|
|
BALLOON:3,8,8,10,30,9
|
|
SCOREINIT:790,4440
|
|
SCOREDIFF:230
|
|
|
|
#START
|
|
0,
|
|
0,
|
|
|
|
#GOGOSTART
|
|
10101100,
|
|
10102200,
|
|
10101100,
|
|
500000000000000000000000000008000000200000000000,
|
|
|
|
10201100,
|
|
10202200,
|
|
10201100,
|
|
1278, //10
|
|
#GOGOEND
|
|
|
|
#BPMCHANGE 148.05
|
|
#SCROLL 1.01
|
|
33,
|
|
#BPMCHANGE 152
|
|
#SCROLL 0.98
|
|
1111,
|
|
#BPMCHANGE 150
|
|
#SCROLL 1
|
|
2222,
|
|
2222,
|
|
|
|
500000000000000000000000000000000008000000000000,
|
|
7008,
|
|
1212,
|
|
1122, //18
|
|
|
|
44,
|
|
4444,
|
|
3,
|
|
0,
|
|
|
|
1122,
|
|
3344,
|
|
1212,
|
|
11101020, //26
|
|
|
|
1122,
|
|
3344,
|
|
1212,
|
|
11101000,
|
|
|
|
500000000000000000000000000000000008000000000000,
|
|
7008,
|
|
9009,
|
|
8, //34
|
|
|
|
10111010,
|
|
20222020,
|
|
10111010,
|
|
500000000000000000000008000000000000400000000000,
|
|
|
|
10111010,
|
|
20222020,
|
|
10111010,
|
|
11111040, //42
|
|
|
|
10111110,
|
|
20222220,
|
|
10111110,
|
|
200000000000200000200000500000000000000008000000,
|
|
|
|
7,
|
|
0,
|
|
0008,
|
|
22222000, //50
|
|
|
|
10111100,
|
|
10111100,
|
|
10111100,
|
|
10111010,
|
|
|
|
11111100,
|
|
11111100,
|
|
11111100,
|
|
0004, //58
|
|
|
|
#GOGOSTART
|
|
10101120,
|
|
10102220,
|
|
10101120,
|
|
500000000000000000000000000008000000200000000000,
|
|
|
|
10201120,
|
|
10201120,
|
|
11201120,
|
|
9000000009008000,
|
|
#GOGOEND
|
|
0,
|
|
#BARLINEOFF
|
|
0, //68
|
|
#END
|
|
|
|
|
|
COURSE:Easy
|
|
LEVEL:3
|
|
BALLOON:2,6,5,8,27,7
|
|
SCOREINIT:650,6480
|
|
SCOREDIFF:213
|
|
|
|
#START
|
|
0,
|
|
0,
|
|
|
|
#GOGOSTART
|
|
1110,
|
|
1110,
|
|
1110,
|
|
500000000000000000000000000000000008000000000000,
|
|
|
|
1112,
|
|
1110,
|
|
1112,
|
|
1178, //10
|
|
#GOGOEND
|
|
|
|
#BPMCHANGE 148.05
|
|
#SCROLL 1.01
|
|
33,
|
|
#BPMCHANGE 152
|
|
#SCROLL 0.98
|
|
1110,
|
|
#BPMCHANGE 150
|
|
#SCROLL 1
|
|
2220,
|
|
2220,
|
|
|
|
500000000000000000000000000000000008000000000000,
|
|
7008,
|
|
1110,
|
|
2220, //18
|
|
|
|
44,
|
|
4444,
|
|
3,
|
|
0,
|
|
|
|
12,
|
|
34,
|
|
12,
|
|
1110, //26
|
|
|
|
12,
|
|
34,
|
|
12,
|
|
1110,
|
|
|
|
500000000000000000000000000000000008000000000000,
|
|
7008,
|
|
9009,
|
|
8, //34
|
|
|
|
1111,
|
|
1110,
|
|
2222,
|
|
2220,
|
|
|
|
1111,
|
|
1110,
|
|
2222,
|
|
2220, //42
|
|
|
|
1122,
|
|
1120,
|
|
2211,
|
|
200000000000200000000000500000000000000008000000,
|
|
|
|
7,
|
|
0,
|
|
0,
|
|
8, //50
|
|
|
|
1112,
|
|
1110,
|
|
1112,
|
|
1110,
|
|
|
|
1112,
|
|
1110,
|
|
1112,
|
|
0, //58
|
|
|
|
#GOGOSTART
|
|
1111,
|
|
1120,
|
|
1111,
|
|
500000000000000000000000000000000008000000000000,
|
|
|
|
1112,
|
|
1112,
|
|
1212,
|
|
9000000009008000,
|
|
#GOGOEND
|
|
0,
|
|
#BARLINEOFF
|
|
0, //68
|
|
#END |