Files
TJA-by-song-no/tja/857.tja
2026-03-04 23:59:27 +09:00

449 lines
5.3 KiB
Plaintext
Raw Permalink Blame History

This file contains ambiguous Unicode characters
This file contains Unicode characters that might be confused with other characters. If you think that this is intentional, you can safely ignore this warning. Use the Escape button to reveal them.
//TJADB Project
TITLE:Sakura Secret
TITLEJA:サクラ・シークレット
SUBTITLE:--Taku Inoue/Touhou Project & Synchronica
SUBTITLEJA:東方Project×NAMCO SOUNDS Taku Inoue 「シンクロニカ」より
BPM:145
WAVE:Sakura Secret.ogg
OFFSET:-0.435
DEMOSTART:39.591
COURSE:Oni
LEVEL:9
BALLOON:12,12
SCOREINIT:450
SCOREDIFF:110
#START
220000000000000000200000000000000000200000000000,
220000000000000000200000000000000000200000000000,
220000000000200000000000220000000000200000000000,
220000000000000000000000000000000000000000000000,
220000000000000000200000000000000000200000000000,
220000000000000000200000000000000000200000000000,
220000000000200000000000220000000000200000000000,
4,
#BARLINEOFF
#MEASURE 1/4
,
#BARLINEON
#BPMCHANGE 160
#MEASURE 4/4
30020020,
30020020,
1212,
1022201122221210,
300000200200200200202020200200100200200100200000,
3022002011121222,
1212,
600000000000000000000000000000000008000000000000,
1002102012201000,
1002102012201022,
1002102012201022,
100000000200100000200200100200200000100000202020,
1202102212021012,
1202102212021010,
1111111111111111,
200200100100200200100100200100200100201020102010,
2002220212012020,//26
#GOGOSTART
1000201022120220,
1012212012112020,
1000201022122220,
1012212010201000,
1000201022121020,
1012212012112020,
1000201022120222,
70000008,//34
#GOGOEND
20120212,
1221,
20120212,
300000000300000000300000600000000000000008000000,
20120212,
1221,
20220212,
3003003040040040,
100000202020200000200200101010200100200100200100,
20000222,
20000222,
12222222,
1022222210202020,
30000222,
30003222,
32223222,
600000000000000000000008000000200000200000200000,
1002202012202020,
1002202012202022,
1002202012202022,
100000000200200000200200100200200000200000202020,
12221222,
12221222,
1222122212221222,
100200100200100200100200102010201020102010201020,
0004,
1021,
10012010,
10112112,
3003003040222222,
10002002,
500000000000000000000000000008000000200000200000,
1212,
1011222011112220,//68
#GOGOSTART
0000201022020222,
1012212012112000,
1000201022122220,
1012212010203020,
1000201022122020,
1022222212112210,
3000202030222222,//78
#GOGOEND
1002202012202000,
1002202012202022,
1002202012202022,
100000000200200000200200100200200000200000202020,
12121212,
12121212,
111111111111,
1111111111111111,
202020100100200100100100200000000000000000000000,
70000008,
,
,
,
,
#END
COURSE:Hard
LEVEL:5
BALLOON:8,7,8
SCOREINIT:510
SCOREDIFF:140
#START
20020020,
20020020,
2222,
2,
20020020,
20020020,
2222,
2,
#BARLINEOFF
#MEASURE 1/4
,
#BARLINEON
#BPMCHANGE 160
#MEASURE 4/4
30020020,
30020020,
1212,
500000000000000000000000000000000008000000000000,
30020020,
30020020,
1212,
600000000000000000000000000000000008000000000000,
1111,
1112,
1111,
1122,
3232,
3232,
3333,
600000000000000000000000000000000000000000000008,
0002,//26
#GOGOSTART
1000100010020000,
1001001001002000,
1000100010020000,
1001001020002000,
1110,
1001001001002000,
1000100020020000,
70000008,//34
#GOGOEND
20120212,
1221,
20120212,
300000000300000000300000600000000000000008000000,
20120212,
1221,
20220212,
3003003040040040,
00000222,
20000222,
20000222,
12222222,
10000222,
30000222,
30003222,
32223222,
30000222,
10202122,
10202122,
12221222,
10202122,
10202122,
10201222,
32323232,
300000300000300000300000600000000000000008000000,
7008,
1021,
10012010,
10112110,
3003003040000000,
10002002,
500000000000000000000000000008000000200000200000,
1122,
500000000000000000000000000008000000000000000000,//68
#GOGOSTART
00201011,
1002001002002020,
10221222,
10102222,
10201022,
1002001010001000,
30223222,//78
#GOGOEND
2002002010202000,
2002002010202020,
2002002010202000,
2002002010202020,
1111,
1111,
111111111111,
500000000000000000000000000000000000000000000008,
04,
70000008,
,
,
,
,
#END
COURSE:Normal
LEVEL:4
BALLOON:6,5
#START
20020020,
20020020,
2222,
2,
20020020,
20020020,
2222,
2,
#BARLINEOFF
#MEASURE 1/4
,
#BARLINEON
#BPMCHANGE 160
#MEASURE 4/4
3,
3,
1111,
500000000000000000000000000000000008000000000000,
3,
3,
1111,
600000000000000000000000000000000008000000000000,
11,
12,
11,
12,
33,
33,
3333,
600000000000000000000000000000000000000000000008,
,//26
#GOGOSTART
1110,
10010020,
1110,
2022,
1110,
10010020,
1110,
70000008,//34
#GOGOEND
10110020,
2222,
10110020,
34,
10110020,
2222,
10110020,
34,
,
2,
2,
22,
2,
3,
33,
33,
600000000000000000000000000000000008000000000000,
12,
12,
12,
12,
11,
11,
3333,
3333,
7008,
1021,
1021,
10110110,
34,
12,
500000000000000000000000000008000000000000000000,
1122,
500000000000000000000000000008000000000000000000,//68
#GOGOSTART
0212,
10020020,
1212,
1120,
1012,
11,
33,//78
#GOGOEND
12,
12,
12,
12,
1110,
1110,
500000000000000000000000000008000000000000000000,
600000000000000000000000000000000000000000000008,
,
4,
,
,
,
,
#END
COURSE:Easy
LEVEL:2
BALLOON:4,3
#START
2,
2,
22,
2,
2,
2,
22,
2,
#BARLINEOFF
#MEASURE 1/4
,
#BARLINEON
#BPMCHANGE 160
#MEASURE 4/4
3,
3,
11,
1,
3,
3,
11,
3,
11,
1,
11,
1,
3,
3,
33,
600000000000000000000000000000000000000000000008,
,//26
#GOGOSTART
11,
1,
11,
1,
11,
1,
11,
7008,//34
#GOGOEND
1,
2,
1,
3,
1,
2,
1,
34,
,
2,
2,
22,
2,
3,
3,
33,
600000000000000000000000000008000000000000000000,
1,
1,
11,
1,
11,
11,
33,
3,
78,
1001,
1001,
1001,
3,
11,
500000000000000000000000000008000000000000000000,
11,
1,//68
#GOGOSTART
01,
1,
11,
1,
11,
1,
33,//78
#GOGOEND
11,
11,
11,
11,
12,
12,
500000000000000000000000000008000000000000000000,
600000000000000000000000000000000000000000000008,
,
4,
#END