549 lines
6.4 KiB
Plaintext
549 lines
6.4 KiB
Plaintext
//TJADB Project
|
|
TITLE:Nyanyanya
|
|
TITLEJA:にゃーにゃーにゃー
|
|
SUBTITLE:--Rissyuu feat. Choco
|
|
SUBTITLEJA:立秋 feat.ちょこ
|
|
BPM:222
|
|
WAVE:Nyanyanya.ogg
|
|
OFFSET:-1.199
|
|
DEMOSTART:74.611
|
|
|
|
COURSE:Oni
|
|
LEVEL:10
|
|
BALLOON:2,2,2,2
|
|
SCOREINIT:350
|
|
SCOREDIFF:90
|
|
|
|
|
|
#START
|
|
|
|
|
|
301202101201,
|
|
101201101201,
|
|
001202101201,
|
|
100010200010000011200010,
|
|
002202200202,
|
|
002202200202,
|
|
111111111111,
|
|
700800700800700800000040,//8
|
|
|
|
#GOGOSTART
|
|
002122122122,
|
|
102020102020102010202011,
|
|
102122122122,
|
|
102020102020102011200030,
|
|
001202100201,
|
|
100010222020100010200010,
|
|
444333,
|
|
400000004000000040000000600000000008000000003000,//16
|
|
|
|
#GOGOEND
|
|
001202101201,
|
|
101201101201,
|
|
000010200010222010200011,
|
|
101212101203,
|
|
0202,
|
|
0202,
|
|
0202,
|
|
000000200000000000220030,
|
|
001202101201,
|
|
100010200010100010222010,
|
|
001202101201,
|
|
100010200010100010222030,
|
|
000202000200,
|
|
000202000201,
|
|
200010200020222020200020,
|
|
200020100020100011200030,
|
|
002202101201,
|
|
101201101202,
|
|
100020200020222020200011,
|
|
100202102003,
|
|
001202101201,
|
|
100010200011100010200010,
|
|
000010200020100010200011,
|
|
100010200010000010200011,
|
|
101202101201,
|
|
100010200011100010200010,
|
|
000010200020100010200011,
|
|
100010200010000010222030,
|
|
001202101201,
|
|
100010200022100010200020,
|
|
100010200020100010200011,
|
|
100010200010200010222030,
|
|
001202101201,
|
|
100010200022100010200010,
|
|
000010200020100010200011,
|
|
100010200010200011200040,
|
|
0222,
|
|
200200202002,
|
|
0222,
|
|
200200202002,
|
|
0222,
|
|
200200202002,
|
|
0222,
|
|
202020200202,
|
|
0222,
|
|
200200202002,
|
|
0222,
|
|
222222,
|
|
200202100202,
|
|
100202100202,
|
|
112010112010,
|
|
100010201000700800000040,//68
|
|
|
|
#GOGOSTART
|
|
002122122122,
|
|
102020102020100010222030,
|
|
002122122122,
|
|
102020102020102010202210,
|
|
001202101201,
|
|
100010222020100010200000,
|
|
100010200020100010200011,
|
|
101201001203,
|
|
000011202010202010202010,
|
|
202010202010201020201011,
|
|
121221221221,
|
|
202010202010201022200030,
|
|
001202100201,
|
|
100010222020100010200010,
|
|
444333,
|
|
400000004000000040000000600000000008000000003000,//84
|
|
|
|
#GOGOEND
|
|
0212,
|
|
100200102201,
|
|
001210101210,
|
|
111211112112,
|
|
000//89
|
|
|
|
#GOGOSTART
|
|
402101201,
|
|
100010222020100010200000,
|
|
100010200020100010200011,
|
|
101201001203,
|
|
000011201010201010201010,
|
|
201010201010201020101011,
|
|
100000221011201010201010,
|
|
201010201010201022100030,
|
|
001202100201,
|
|
100010222020100010200010,
|
|
444333,
|
|
101010201020101020111110,//100
|
|
|
|
#GOGOEND
|
|
001202101201,
|
|
101201101201,
|
|
000010200010222010200011,
|
|
100010201020101020111110,//104
|
|
|
|
#GOGOSTART
|
|
112122112122,
|
|
112122112122,
|
|
101120112011201120112011,
|
|
200010201020102010201020500000000000080000002000,//108
|
|
|
|
#GOGOEND
|
|
|
|
|
|
#END
|
|
|
|
|
|
COURSE:Hard
|
|
LEVEL:7
|
|
SCOREINIT:400
|
|
SCOREDIFF:100
|
|
|
|
#START
|
|
302200102200,
|
|
102200102200,
|
|
102200102200,
|
|
102200102201,
|
|
002202200002,
|
|
002202200000,
|
|
500000000000000000000000000000000000000008000000,
|
|
400400400003,//8
|
|
|
|
#GOGOSTART
|
|
000101101101,
|
|
101101101001,
|
|
000101101101,
|
|
101101101003,
|
|
000201100200,
|
|
100201102200,
|
|
444333,
|
|
400000004000000040000000600000000008000000003000,//16
|
|
|
|
#GOGOEND
|
|
002200102200,
|
|
102200102201,
|
|
002200102200,
|
|
102200102203,
|
|
0202,
|
|
0202,
|
|
0202,
|
|
000200000203,
|
|
002200102200,
|
|
102200102201,
|
|
002200102200,
|
|
102200102203,
|
|
0202,
|
|
0202,
|
|
0202,
|
|
000200000203,
|
|
002200102200,
|
|
102200102200,
|
|
102200200200,
|
|
200000002003,
|
|
001100100200,
|
|
101100100202,
|
|
001100100200,
|
|
101100100202,
|
|
001100100200,
|
|
101100100202,
|
|
001100100200,
|
|
101100100204,
|
|
002200100200,
|
|
102200100200,
|
|
002200100200,
|
|
102200100200,
|
|
002200100200,
|
|
102200100200,
|
|
102200102200,
|
|
102202200003,
|
|
0222,
|
|
200200202002,
|
|
0222,
|
|
200200202002,
|
|
0222,
|
|
200200202002,
|
|
0222,
|
|
202020200202,
|
|
0222,
|
|
200200202002,
|
|
0222,
|
|
222222,
|
|
2222,
|
|
2222,
|
|
222222,
|
|
400400400003,//68
|
|
|
|
#GOGOSTART
|
|
000101101101,
|
|
101101101101,
|
|
000101101101,
|
|
101101101003,
|
|
000201100200,
|
|
100201100200,
|
|
100201100200,
|
|
100201102203,
|
|
000101101101,
|
|
101101101001,
|
|
000101101101,
|
|
101101101003,
|
|
000201100200,
|
|
100201102200,
|
|
444333,
|
|
400000004000000040000000600000000000080000003000,//84
|
|
|
|
#GOGOEND
|
|
0212,
|
|
100200102001,
|
|
0212,
|
|
100200102001,
|
|
000//89
|
|
|
|
#GOGOSTART
|
|
401100200,
|
|
100201100200,
|
|
100201100200,
|
|
100201102203,
|
|
000101101101,
|
|
101101101001,
|
|
000101101101,
|
|
101101101003,
|
|
000201100200,
|
|
100201102200,
|
|
444333,
|
|
400000004000000040000000600000000000080000003000,//100
|
|
|
|
#GOGOEND
|
|
002200102200,
|
|
102200102201,
|
|
002200102200,
|
|
102200102200,//104
|
|
|
|
#GOGOSTART
|
|
111111111100,
|
|
111111111100,
|
|
500000000000000000000000000000000000000008000000,
|
|
600000000000000000000000000000000008000000002000,//108
|
|
|
|
#GOGOEND
|
|
,
|
|
#END
|
|
|
|
COURSE:Normal
|
|
LEVEL:6
|
|
BALLOON:10,29
|
|
|
|
#START
|
|
31,
|
|
22,
|
|
11,
|
|
200000200001,
|
|
000000000001,
|
|
,
|
|
500000000000000000000000000000000008000000000000,
|
|
300300300003,//8
|
|
|
|
#GOGOSTART
|
|
0111,
|
|
100100101001,
|
|
0111,
|
|
100100101003,
|
|
0111,
|
|
100100101000,
|
|
6,
|
|
000000000000000000000000000008000000000000003000,//16
|
|
|
|
#GOGOEND
|
|
02,
|
|
12,
|
|
12,
|
|
100000200003,
|
|
0202,
|
|
0202,
|
|
0202,
|
|
000200000205,
|
|
,
|
|
000000000000000000000000000000000008000000000000,
|
|
,
|
|
000000000003,
|
|
0202,
|
|
0202,
|
|
0202,
|
|
000200000205,
|
|
,
|
|
000000000008000000000000000000000000700000000000,
|
|
,
|
|
800000000003,
|
|
01,
|
|
1011,
|
|
11,
|
|
1011,
|
|
11,
|
|
1011,
|
|
11,
|
|
1011,
|
|
11,
|
|
1022,
|
|
11,
|
|
1022,
|
|
11,
|
|
1022,
|
|
11,
|
|
200200200003,
|
|
,
|
|
,
|
|
,
|
|
000000000002,
|
|
,
|
|
,
|
|
,
|
|
000000000002,
|
|
000000000002,
|
|
000000000002,
|
|
,
|
|
000000000002,
|
|
000000000002,
|
|
000000000002,
|
|
02,
|
|
300300300003,//68
|
|
|
|
#GOGOSTART
|
|
0111,
|
|
100100101001,
|
|
0111,
|
|
100100101003,
|
|
01,
|
|
1110,
|
|
22,
|
|
200200200003,
|
|
0111,
|
|
100100202001,
|
|
0111,
|
|
100100202003,
|
|
0111,
|
|
100100202000,
|
|
6,
|
|
000000000000000000000000000008000000000000003000,//84
|
|
|
|
#GOGOEND
|
|
01,
|
|
100000101001,
|
|
01,
|
|
100000101001,
|
|
0//89
|
|
|
|
#GOGOSTART
|
|
010,
|
|
1110,
|
|
22,
|
|
200200200003,
|
|
0111,
|
|
100100202001,
|
|
0111,
|
|
100100202003,
|
|
0111,
|
|
100100202000,
|
|
6,
|
|
000000000000000000000000000008000000000000003000,//100
|
|
|
|
#GOGOEND
|
|
02,
|
|
12,
|
|
12,
|
|
12,//104
|
|
|
|
#GOGOSTART
|
|
9,
|
|
,
|
|
,
|
|
9,//108
|
|
|
|
#GOGOEND
|
|
8,
|
|
#END
|
|
|
|
COURSE:Easy
|
|
LEVEL:4
|
|
BALLOON:8,24
|
|
|
|
#START
|
|
31,
|
|
11,
|
|
11,
|
|
100000100001,
|
|
000000000001,
|
|
,
|
|
500000000000000000000000000008000000000000000000,
|
|
300300300003,//8
|
|
|
|
#GOGOSTART
|
|
0111,
|
|
100100100001,
|
|
0111,
|
|
100100100003,
|
|
01,
|
|
11,
|
|
6,
|
|
000000000000000000000008000000000000000000003000,//16
|
|
|
|
#GOGOEND
|
|
01,
|
|
11,
|
|
11,
|
|
100000100003,
|
|
,
|
|
,
|
|
,
|
|
000000000005,
|
|
,
|
|
000000000000000000000000000000000008000000000000,
|
|
,
|
|
000000000003,
|
|
,
|
|
,
|
|
,
|
|
000000000005,
|
|
,
|
|
000000000008000000000000000000000000700000000000,
|
|
,
|
|
800000000003,
|
|
01,
|
|
11,
|
|
11,
|
|
11,
|
|
11,
|
|
11,
|
|
11,
|
|
11,
|
|
11,
|
|
12,
|
|
11,
|
|
12,
|
|
11,
|
|
12,
|
|
11,
|
|
100100100003,
|
|
,
|
|
,
|
|
,
|
|
000000000002,
|
|
,
|
|
,
|
|
,
|
|
000000000002,
|
|
000000000002,
|
|
000000000002,
|
|
,
|
|
000000000002,
|
|
000000000002,
|
|
000000000002,
|
|
,
|
|
300300300003,//68
|
|
|
|
#GOGOSTART
|
|
0111,
|
|
100100100001,
|
|
0111,
|
|
100100100003,
|
|
01,
|
|
11,
|
|
22,
|
|
200000200003,
|
|
0111,
|
|
100100100001,
|
|
0111,
|
|
100100100003,
|
|
01,
|
|
22,
|
|
6,
|
|
000000000000000000000000000008000000000000003000,//84
|
|
|
|
#GOGOEND
|
|
01,
|
|
100000100001,
|
|
01,
|
|
10000010001,
|
|
0//89
|
|
|
|
#GOGOSTART
|
|
010,
|
|
11,
|
|
22,
|
|
200000200003,
|
|
0111,
|
|
100100100001,
|
|
0111,
|
|
100100100003,
|
|
01,
|
|
22,
|
|
6,
|
|
000000000000000000000000000008000000000000003000,//100
|
|
|
|
#GOGOEND
|
|
01,
|
|
11,
|
|
11,
|
|
11,//104
|
|
|
|
#GOGOSTART
|
|
9,
|
|
,
|
|
,
|
|
9,//108
|
|
|
|
#GOGOEND
|
|
8,
|
|
#END |