1142 lines
9.9 KiB
Plaintext
1142 lines
9.9 KiB
Plaintext
//TJADB Project
|
|
TITLE:Caribbean Knight
|
|
TITLEJA:Caribbean Knight
|
|
SUBTITLE:--Taiji
|
|
SUBTITLEJA:Taiji
|
|
BPM:285
|
|
WAVE:Caribbean Knight.ogg
|
|
OFFSET:-1.997
|
|
DEMOSTART:28.111
|
|
|
|
COURSE:Oni
|
|
LEVEL:10
|
|
SCOREINIT:440
|
|
SCOREDIFF:110
|
|
|
|
|
|
#START
|
|
|
|
|
|
#MEASURE 9/8
|
|
202010221022102210,
|
|
#BPMCHANGE 142.5
|
|
#MEASURE 2/4
|
|
#SCROLL 1.5
|
|
222211,
|
|
#BPMCHANGE 285
|
|
#MEASURE 4/4
|
|
#SCROLL 1
|
|
300011100011,
|
|
100011200011,
|
|
100011100011,
|
|
222202,
|
|
333033,
|
|
#MEASURE 2/3
|
|
#BARLINEOFF
|
|
#BPMCHANGE 293.7
|
|
#SCROLL 0.97
|
|
3,
|
|
#MEASURE 3/4
|
|
#BARLINEON
|
|
#BPMCHANGE 285
|
|
#SCROLL 1
|
|
020020,
|
|
020,
|
|
100101,
|
|
100101,
|
|
100101,
|
|
100101,
|
|
222,
|
|
202022,
|
|
100201,
|
|
100101,
|
|
100101,
|
|
221121,
|
|
012022,
|
|
021220,
|
|
101022,
|
|
012212,
|
|
111111,
|
|
111111,
|
|
222222,
|
|
222222,
|
|
12,
|
|
112,
|
|
111,
|
|
222,
|
|
111111,
|
|
111111,
|
|
111111,
|
|
111011101110,
|
|
5,
|
|
000000000000000000000000000000000008,
|
|
#SCROLL 1.01
|
|
,
|
|
222,//40
|
|
|
|
#GOGOSTART
|
|
#BPMCHANGE 290
|
|
#SCROLL 1
|
|
300120,
|
|
102011,
|
|
100120,
|
|
122,
|
|
100122,
|
|
122,
|
|
100222,
|
|
221020,
|
|
100120,
|
|
120,
|
|
111,
|
|
222,
|
|
100120,
|
|
221,//54
|
|
|
|
#GOGOEND
|
|
202,
|
|
211,//56
|
|
|
|
#GOGOSTART
|
|
300120,
|
|
122,
|
|
100120,
|
|
122,
|
|
100120,
|
|
221,
|
|
100222,
|
|
221122,
|
|
111120,
|
|
111120,
|
|
111,
|
|
222,
|
|
100120,
|
|
221,//70
|
|
|
|
#GOGOEND
|
|
3330,
|
|
#SCROLL 0.87
|
|
3330,
|
|
#SCROLL 0.75
|
|
3330,
|
|
#BARLINEOFF
|
|
#SCROLL 0.5
|
|
002,
|
|
#BPMCHANGE 270
|
|
#SCROLL 0.53
|
|
222000,
|
|
#MEASURE 4/4
|
|
#BARLINEON
|
|
#BPMCHANGE 180
|
|
#SCROLL 1
|
|
10210012,
|
|
500008000000100000000000
|
|
#SCROLL 2
|
|
100100100100100100100100,
|
|
1111111111111111,
|
|
11111111
|
|
#SCROLL 1
|
|
20202020,
|
|
10210012,
|
|
500008000000200000000000200000000000200200200000,
|
|
#SCROLL 2
|
|
1111222222222222,
|
|
11112222
|
|
#SCROLL 1
|
|
10101010,
|
|
10210012,
|
|
500008000000100000000000
|
|
#SCROLL 2
|
|
100100100100100100200200,
|
|
1111112211111122,
|
|
11221122
|
|
#SCROLL 1
|
|
20202020,
|
|
10210012,
|
|
#SCROLL 2
|
|
1111222211112222,
|
|
#SCROLL 1
|
|
10012022,
|
|
#MEASURE 11/8
|
|
11111111111,
|
|
#MEASURE 5/4
|
|
#BARLINEOFF
|
|
1000100010001000100010005000000000
|
|
#BPMCHANGE 183
|
|
#SCROLL 0.98
|
|
00000000000000000008000000,
|
|
#MEASURE 4/4
|
|
#BARLINEON
|
|
#BPMCHANGE 180
|
|
#SCROLL 1
|
|
2000202220020020,
|
|
20211111,
|
|
2000200020020022,
|
|
101202101202,
|
|
200200202022,
|
|
2022201010101000,
|
|
11221122,
|
|
1122
|
|
#BPMCHANGE 171
|
|
#SCROLL 1.05
|
|
11
|
|
#BPMCHANGE 162
|
|
#SCROLL 1.11
|
|
11,
|
|
#MEASURE 3/4
|
|
#BPMCHANGE 153
|
|
#SCROLL 1.17
|
|
22
|
|
#BPMCHANGE 144
|
|
#SCROLL 1.25
|
|
22
|
|
#BPMCHANGE 135
|
|
#SCROLL 1.33
|
|
40,
|
|
#MEASURE 4/4
|
|
#BPMCHANGE 270
|
|
#SCROLL 1
|
|
30030032,
|
|
20202202,
|
|
30030030,
|
|
#BPMCHANGE 283.7
|
|
#SCROLL 0.95
|
|
20202202,
|
|
#BPMCHANGE 285
|
|
#SCROLL 0.98
|
|
30030032,
|
|
22112212,
|
|
11221122,
|
|
1002200020202020,
|
|
#SCROLL 1
|
|
31212211,
|
|
22121121,
|
|
22120212,
|
|
31212211,
|
|
22121121,
|
|
22112212,
|
|
#BPMCHANGE 295
|
|
#SCROLL 0.96
|
|
31212211,
|
|
2020102022201010,
|
|
2220101022201010,
|
|
2210221022102210,
|
|
0111111200000000,
|
|
,
|
|
#BARLINEOFF
|
|
00202002,
|
|
|
|
#MEASURE 3/4
|
|
#BARLINEON
|
|
#SCROLL 1
|
|
#GOGOSTART
|
|
300120,
|
|
102011,
|
|
100120,
|
|
122,
|
|
100122,
|
|
122,
|
|
100222,
|
|
221020,
|
|
100120,
|
|
120,
|
|
111,
|
|
222,
|
|
100120,
|
|
221,//136
|
|
|
|
#GOGOEND
|
|
222202,
|
|
200000200000500000000000000008000000,//138
|
|
|
|
#BPMCHANGE 300
|
|
#GOGOSTART
|
|
100140,
|
|
122,
|
|
100120,
|
|
122,
|
|
100120,
|
|
221,
|
|
100222,
|
|
221020,
|
|
111120,
|
|
111120,
|
|
111120,
|
|
112,
|
|
011120,
|
|
111120,
|
|
111120,
|
|
112,
|
|
200120,
|
|
221,//156
|
|
|
|
#GOGOEND
|
|
3330,
|
|
#SCROLL 0.87
|
|
3330,
|
|
#MEASURE 4/4
|
|
#SCROLL 0.75
|
|
3003003000000000,
|
|
#MEASURE 9/8
|
|
#SCROLL 1
|
|
202010221022102210,
|
|
#MEASURE 1/2
|
|
#BPMCHANGE 150
|
|
#SCROLL 1.33
|
|
2002002002001001,
|
|
#MEASURE 3/4
|
|
#SCROLL 1
|
|
222211,//162
|
|
|
|
#MEASURE 4/4
|
|
#BPMCHANGE 300
|
|
#GOGOSTART
|
|
444433,//163
|
|
|
|
#GOGOEND
|
|
4,
|
|
|
|
|
|
#END
|
|
|
|
|
|
COURSE:Hard
|
|
LEVEL:7
|
|
BALLOON:6,18,22,3
|
|
SCOREINIT:390
|
|
SCOREDIFF:110
|
|
|
|
#START
|
|
#MEASURE 9/8
|
|
500000000000000000000000000000000000000000000000000008,
|
|
#BPMCHANGE 142.5
|
|
#MEASURE 2/4
|
|
#SCROLL 1.5
|
|
,
|
|
#BPMCHANGE 285
|
|
#MEASURE 4/4
|
|
#SCROLL 1
|
|
301101,
|
|
101200,
|
|
101101,
|
|
222202,
|
|
333033,
|
|
#MEASURE 2/3
|
|
3,
|
|
#MEASURE 3/4
|
|
,
|
|
,
|
|
11,
|
|
100101,
|
|
11,
|
|
100101,
|
|
222,
|
|
202022,
|
|
11,
|
|
100101,
|
|
11,
|
|
7,
|
|
802022,
|
|
022220,
|
|
101011,
|
|
002222,
|
|
111,
|
|
101110,
|
|
222,
|
|
202220,
|
|
12,
|
|
112,
|
|
111,
|
|
222,
|
|
111010,
|
|
111010,
|
|
111110,
|
|
111110,
|
|
5,
|
|
000000000000000000000000000000000008,
|
|
#BPMCHANGE 287
|
|
,
|
|
222,//40
|
|
|
|
#BPMCHANGE 290
|
|
#GOGOSTART
|
|
3,
|
|
100011,
|
|
1,
|
|
122,
|
|
101,
|
|
222,
|
|
100222,
|
|
222,
|
|
1,
|
|
120,
|
|
111,
|
|
222,
|
|
101,
|
|
221,//54
|
|
|
|
#GOGOEND
|
|
202,
|
|
2,//56
|
|
|
|
#GOGOSTART
|
|
3,
|
|
122,
|
|
101,
|
|
122,
|
|
101,
|
|
221,
|
|
100222,
|
|
222,
|
|
111110,
|
|
111110,
|
|
111,
|
|
222,
|
|
101,
|
|
221,//70
|
|
|
|
#GOGOEND
|
|
3330,
|
|
#SCROLL 0.87
|
|
3330,
|
|
#SCROLL 0.75
|
|
3330,
|
|
#BARLINEOFF
|
|
00
|
|
#BPMCHANGE 274
|
|
#SCROLL 0.531
|
|
0,
|
|
#BPMCHANGE 270
|
|
,
|
|
#BARLINEON
|
|
#BPMCHANGE 180
|
|
#MEASURE 4/4
|
|
#SCROLL 1
|
|
10210012,
|
|
3
|
|
#SCROLL 2
|
|
5,
|
|
,
|
|
000000000000000000000008
|
|
#SCROLL 1
|
|
000000000000000000000000,
|
|
10210012,
|
|
3222,
|
|
#SCROLL 2
|
|
7,
|
|
0
|
|
#SCROLL 1
|
|
8,
|
|
10210012,
|
|
3
|
|
#SCROLL 2
|
|
5,
|
|
,
|
|
000000000000000000000008
|
|
#SCROLL 1
|
|
000000000000000000000000,
|
|
10210012,
|
|
#SCROLL 2
|
|
500000000000000000000000000000000000000000000008,
|
|
#SCROLL 1
|
|
00012022,
|
|
#MEASURE 11/8
|
|
7,
|
|
#BARLINEOFF
|
|
#MEASURE 5/4
|
|
0008000000,
|
|
#BARLINEON
|
|
#MEASURE 4/4
|
|
2000200020020020,
|
|
20211110,
|
|
2000200020020020,
|
|
102200102200,
|
|
200200202020,
|
|
22211110,
|
|
11201120,
|
|
1120
|
|
#BPMCHANGE 172
|
|
#SCROLL 1.0465
|
|
11
|
|
#BPMCHANGE 162
|
|
#SCROLL 1.1111
|
|
1
|
|
#BPMCHANGE 164
|
|
#SCROLL 1.0976
|
|
1,
|
|
#BPMCHANGE 154
|
|
#MEASURE 3/4
|
|
#SCROLL 1.1688
|
|
2
|
|
#BPMCHANGE 150
|
|
#SCROLL 1.2
|
|
2
|
|
#BPMCHANGE 144
|
|
#SCROLL 1.25
|
|
22
|
|
#BPMCHANGE 137
|
|
#SCROLL 1.313
|
|
40,
|
|
#BPMCHANGE 270
|
|
#MEASURE 4/4
|
|
#SCROLL 1
|
|
10010010,
|
|
20202200,
|
|
10010010,
|
|
#BPMCHANGE 284
|
|
#SCROLL 0.95
|
|
20202200,
|
|
#SCROLL 0.98
|
|
10010010,
|
|
2212,
|
|
11102220,
|
|
2220,
|
|
#BPMCHANGE 285
|
|
#SCROLL 1
|
|
30111010,
|
|
22201011,
|
|
10220020,
|
|
30111010,
|
|
22201011,
|
|
1120,
|
|
#BPMCHANGE 295
|
|
#SCROLL 0.96
|
|
10111020,
|
|
10221022,
|
|
10221020,
|
|
21212121,
|
|
0700000800000000,
|
|
,
|
|
#BARLINEOFF
|
|
00202002,//122
|
|
|
|
#BARLINEON
|
|
#MEASURE 3/4
|
|
#SCROLL 1
|
|
#GOGOSTART
|
|
3,
|
|
102011,
|
|
1,
|
|
122,
|
|
101,
|
|
222,
|
|
100222,
|
|
222,
|
|
1,
|
|
120,
|
|
111,
|
|
222,
|
|
101,
|
|
221,//136
|
|
|
|
#GOGOEND
|
|
220200,
|
|
2,//138
|
|
|
|
#BPMCHANGE 300
|
|
#GOGOSTART
|
|
104,
|
|
122,
|
|
102,
|
|
122,
|
|
101,
|
|
221,
|
|
100222,
|
|
222,
|
|
111110,
|
|
111110,
|
|
111110,
|
|
222,
|
|
011110,
|
|
111110,
|
|
111110,
|
|
221,
|
|
201,
|
|
221,//156
|
|
|
|
#GOGOEND
|
|
3330,
|
|
#SCROLL 0.87
|
|
3330,
|
|
#MEASURE 4/4
|
|
#SCROLL 0.75
|
|
3003003000000000,
|
|
#MEASURE 9/8
|
|
#SCROLL 1
|
|
500000000000000000000000000000000000000000000000000008,
|
|
#MEASURE 1/2
|
|
#BPMCHANGE 150
|
|
#SCROLL 1.33
|
|
,
|
|
#MEASURE 3/4
|
|
#SCROLL 1
|
|
222222,//162
|
|
|
|
#MEASURE 4/4
|
|
#BPMCHANGE 300
|
|
#GOGOSTART
|
|
333333,//163
|
|
|
|
#GOGOEND
|
|
4,
|
|
,
|
|
#END
|
|
|
|
COURSE:Normal
|
|
LEVEL:7
|
|
BALLOON:5,9,12,14,21,20
|
|
|
|
#START
|
|
#MEASURE 9/8
|
|
500000000000000000000000000000000000000000000000000008,
|
|
#BPMCHANGE 142.5
|
|
#MEASURE 2/4
|
|
#SCROLL 1.5
|
|
,
|
|
#BPMCHANGE 285
|
|
#MEASURE 4/4
|
|
#SCROLL 1
|
|
11,
|
|
12,
|
|
11,
|
|
1,
|
|
7,
|
|
#MEASURE 2/3
|
|
8,
|
|
#MEASURE 3/4
|
|
,
|
|
,
|
|
1,
|
|
1,
|
|
1,
|
|
1,
|
|
222,
|
|
220,
|
|
1,
|
|
1,
|
|
1,
|
|
110,
|
|
7,
|
|
,
|
|
,
|
|
8,
|
|
111,
|
|
110,
|
|
222,
|
|
220,
|
|
1,
|
|
1,
|
|
110,
|
|
1,
|
|
110,
|
|
110,
|
|
110,
|
|
111,
|
|
5,
|
|
000000000000000000000000000000000008,
|
|
#BPMCHANGE 287
|
|
,
|
|
,//40
|
|
|
|
#BPMCHANGE 290
|
|
#GOGOSTART
|
|
3,
|
|
101,
|
|
1,
|
|
111,
|
|
101,
|
|
111,
|
|
1,
|
|
,
|
|
1,
|
|
110,
|
|
1,
|
|
111,
|
|
101,
|
|
111,//54
|
|
|
|
#GOGOEND
|
|
2,
|
|
,//56
|
|
|
|
#GOGOSTART
|
|
3,
|
|
111,
|
|
1,
|
|
111,
|
|
101,
|
|
111,
|
|
1,
|
|
,
|
|
110,
|
|
110,
|
|
111,
|
|
2,
|
|
101,
|
|
111,//70
|
|
|
|
#GOGOEND
|
|
3,
|
|
#SCROLL 0.87
|
|
3,
|
|
#SCROLL 0.75
|
|
3,
|
|
#BARLINEOFF
|
|
00
|
|
#BPMCHANGE 274
|
|
#SCROLL 0.531
|
|
0,
|
|
#BPMCHANGE 270
|
|
,
|
|
#BARLINEON
|
|
#BPMCHANGE 180
|
|
#MEASURE 4/4
|
|
#SCROLL 1
|
|
10110010,
|
|
1
|
|
#SCROLL 2
|
|
5,
|
|
,
|
|
000000000000000000000008
|
|
#SCROLL 1
|
|
000000000000000000000000,
|
|
10110010,
|
|
1022,
|
|
#SCROLL 2
|
|
7,
|
|
0
|
|
#SCROLL 1
|
|
8,
|
|
10110010,
|
|
1
|
|
#SCROLL 2
|
|
5,
|
|
,
|
|
000000000000000000000008
|
|
#SCROLL 1
|
|
000000000000000000000000,
|
|
10110010,
|
|
#SCROLL 2
|
|
500000000000000000000000000000000000000000000008,
|
|
#SCROLL 1
|
|
0022,
|
|
#MEASURE 11/8
|
|
7,
|
|
#BARLINEOFF
|
|
#MEASURE 5/4
|
|
0000800000,
|
|
#BARLINEON
|
|
#MEASURE 4/4
|
|
2220,
|
|
20201110,
|
|
2220,
|
|
11,
|
|
2220,
|
|
20201110,
|
|
7,
|
|
00000000
|
|
#BPMCHANGE 172
|
|
#SCROLL 1.0465
|
|
00
|
|
#BPMCHANGE 162
|
|
#SCROLL 1.1111
|
|
0
|
|
#BPMCHANGE 164
|
|
#SCROLL 1.0976
|
|
0,
|
|
#BPMCHANGE 154
|
|
#MEASURE 3/4
|
|
#SCROLL 1.1688
|
|
0
|
|
#BPMCHANGE 150
|
|
#SCROLL 1.2
|
|
0
|
|
#BPMCHANGE 144
|
|
#SCROLL 1.25
|
|
00
|
|
#BPMCHANGE 137
|
|
#SCROLL 1.313
|
|
80,
|
|
#BPMCHANGE 270
|
|
#MEASURE 4/4
|
|
#SCROLL 1
|
|
10010010,
|
|
02,
|
|
10010010,
|
|
#BPMCHANGE 284
|
|
#SCROLL 0.95
|
|
02,
|
|
#SCROLL 0.98
|
|
10010010,
|
|
02,
|
|
11,
|
|
2220,
|
|
#BPMCHANGE 285
|
|
#SCROLL 1
|
|
3011,
|
|
01,
|
|
1100,
|
|
3011,
|
|
01,
|
|
1100,
|
|
#BPMCHANGE 295
|
|
#SCROLL 0.96
|
|
9,
|
|
,
|
|
,
|
|
,
|
|
0900,
|
|
8,
|
|
#BARLINEOFF
|
|
,//122
|
|
|
|
#BARLINEON
|
|
#MEASURE 3/4
|
|
#SCROLL 1
|
|
#GOGOSTART
|
|
3,
|
|
101,
|
|
1,
|
|
222,
|
|
101,
|
|
111,
|
|
1,
|
|
,
|
|
1,
|
|
110,
|
|
1,
|
|
222,
|
|
101,
|
|
111,//136
|
|
|
|
#GOGOEND
|
|
2,
|
|
,//138
|
|
|
|
#BPMCHANGE 300
|
|
#GOGOSTART
|
|
1,
|
|
111,
|
|
1,
|
|
222,
|
|
101,
|
|
111,
|
|
1,
|
|
,
|
|
110,
|
|
110,
|
|
111,
|
|
2,
|
|
110,
|
|
110,
|
|
111,
|
|
2,
|
|
101,
|
|
111,//156
|
|
|
|
#GOGOEND
|
|
3,
|
|
#SCROLL 0.87
|
|
3,
|
|
#MEASURE 4/4
|
|
#SCROLL 0.75
|
|
3,
|
|
#MEASURE 9/8
|
|
#SCROLL 1
|
|
500000000000000000000000000000000000000000000000000008,
|
|
#MEASURE 1/2
|
|
#BPMCHANGE 150
|
|
#SCROLL 1.33
|
|
,
|
|
#MEASURE 3/4
|
|
#SCROLL 1
|
|
222,//162
|
|
|
|
#MEASURE 4/4
|
|
#BPMCHANGE 300
|
|
#GOGOSTART
|
|
333,//163
|
|
|
|
#GOGOEND
|
|
4,
|
|
,
|
|
#END
|
|
|
|
COURSE:Easy
|
|
LEVEL:5
|
|
BALLOON:4,9,10,14,17,16
|
|
|
|
#START
|
|
#MEASURE 9/8
|
|
500000000000000000000000000000000000000000000000000008,
|
|
#BPMCHANGE 142.5
|
|
#MEASURE 2/4
|
|
#SCROLL 1.5
|
|
,
|
|
#BPMCHANGE 285
|
|
#MEASURE 4/4
|
|
#SCROLL 1
|
|
11,
|
|
1,
|
|
11,
|
|
1,
|
|
7,
|
|
#MEASURE 2/3
|
|
8,
|
|
#MEASURE 3/4
|
|
,
|
|
,
|
|
1,
|
|
1,
|
|
1,
|
|
1,
|
|
202,
|
|
020,
|
|
1,
|
|
1,
|
|
1,
|
|
1,
|
|
7,
|
|
,
|
|
,
|
|
8,
|
|
5,
|
|
000000000000000008000000000000000000,
|
|
5,
|
|
000000000000000008000000000000000000,
|
|
1,
|
|
,
|
|
1,
|
|
,
|
|
1,
|
|
1,
|
|
1,
|
|
1,
|
|
5,
|
|
000000000000000000000000000000000008,
|
|
#BPMCHANGE 287
|
|
,
|
|
,//40
|
|
|
|
#BPMCHANGE 290
|
|
#GOGOSTART
|
|
3,
|
|
1,
|
|
1,
|
|
1,
|
|
1,
|
|
110,
|
|
1,
|
|
,
|
|
1,
|
|
1,
|
|
1,
|
|
110,
|
|
1,
|
|
110,//54
|
|
|
|
#GOGOEND
|
|
2,
|
|
,//56
|
|
|
|
#GOGOSTART
|
|
3,
|
|
110,
|
|
1,
|
|
110,
|
|
1,
|
|
110,
|
|
1,
|
|
,
|
|
110,
|
|
110,
|
|
110,
|
|
1,
|
|
101,
|
|
1,//70
|
|
|
|
#GOGOEND
|
|
3,
|
|
#SCROLL 0.87
|
|
3,
|
|
#SCROLL 0.75
|
|
3,
|
|
#BARLINEOFF
|
|
00
|
|
#BPMCHANGE 274
|
|
#SCROLL 0.531
|
|
0,
|
|
#BPMCHANGE 270
|
|
,
|
|
#BARLINEON
|
|
#BPMCHANGE 180
|
|
#MEASURE 4/4
|
|
#SCROLL 1
|
|
10010000,
|
|
1
|
|
#SCROLL 2
|
|
5,
|
|
,
|
|
000000000000000000000008
|
|
#SCROLL 1
|
|
000000000000000000000000,
|
|
10010000,
|
|
1022,
|
|
#SCROLL 2
|
|
7,
|
|
0
|
|
#SCROLL 1
|
|
8,
|
|
10010000,
|
|
1
|
|
#SCROLL 2
|
|
5,
|
|
,
|
|
000000000000000000000008
|
|
#SCROLL 1
|
|
000000000000000000000000,
|
|
10010000,
|
|
#SCROLL 2
|
|
500000000000000000000000000000000000000000000008,
|
|
#SCROLL 1
|
|
0022,
|
|
#MEASURE 11/8
|
|
7,
|
|
#BARLINEOFF
|
|
#MEASURE 5/4
|
|
0000800000,
|
|
#BARLINEON
|
|
#MEASURE 4/4
|
|
2220,
|
|
2200,
|
|
2220,
|
|
11,
|
|
2220,
|
|
2200,
|
|
7,
|
|
00000000
|
|
#BPMCHANGE 172
|
|
#SCROLL 1.0465
|
|
00
|
|
#BPMCHANGE 162
|
|
#SCROLL 1.1111
|
|
0
|
|
#BPMCHANGE 164
|
|
#SCROLL 1.0976
|
|
0,
|
|
#BPMCHANGE 154
|
|
#MEASURE 3/4
|
|
#SCROLL 1.1688
|
|
0
|
|
#BPMCHANGE 150
|
|
#SCROLL 1.2
|
|
0
|
|
#BPMCHANGE 144
|
|
#SCROLL 1.25
|
|
00
|
|
#BPMCHANGE 137
|
|
#SCROLL 1.313
|
|
80,
|
|
#BPMCHANGE 270
|
|
#MEASURE 4/4
|
|
#SCROLL 1
|
|
10010010,
|
|
,
|
|
10010010,
|
|
#BPMCHANGE 284
|
|
#SCROLL 0.95
|
|
,
|
|
#SCROLL 0.98
|
|
10010010,
|
|
,
|
|
1,
|
|
22,
|
|
#BPMCHANGE 285
|
|
#SCROLL 1
|
|
3001,
|
|
01,
|
|
0100,
|
|
3001,
|
|
01,
|
|
0100,
|
|
#BPMCHANGE 295
|
|
#SCROLL 0.96
|
|
9,
|
|
,
|
|
,
|
|
,
|
|
0900,
|
|
8,
|
|
#BARLINEOFF
|
|
,//122
|
|
|
|
#BARLINEON
|
|
#MEASURE 3/4
|
|
#SCROLL 1
|
|
#GOGOSTART
|
|
3,
|
|
1,
|
|
1,
|
|
1,
|
|
1,
|
|
110,
|
|
1,
|
|
,
|
|
1,
|
|
1,
|
|
1,
|
|
110,
|
|
1,
|
|
110,//136
|
|
|
|
#GOGOEND
|
|
2,
|
|
,//138
|
|
|
|
#BPMCHANGE 300
|
|
#GOGOSTART
|
|
1,
|
|
110,
|
|
1,
|
|
110,
|
|
1,
|
|
110,
|
|
1,
|
|
,
|
|
110,
|
|
110,
|
|
110,
|
|
2,
|
|
110,
|
|
110,
|
|
110,
|
|
2,
|
|
101,
|
|
1,//156
|
|
|
|
#GOGOEND
|
|
3,
|
|
#SCROLL 0.87
|
|
3,
|
|
#MEASURE 4/4
|
|
#SCROLL 0.75
|
|
3,
|
|
#MEASURE 9/8
|
|
#SCROLL 1
|
|
500000000000000000000000000000000000000000000000000008,
|
|
#MEASURE 1/2
|
|
#BPMCHANGE 150
|
|
#SCROLL 1.33
|
|
,
|
|
#MEASURE 3/4
|
|
#SCROLL 1
|
|
222,//162
|
|
|
|
#MEASURE 4/4
|
|
#BPMCHANGE 300
|
|
#GOGOSTART
|
|
333,//163
|
|
|
|
#GOGOEND
|
|
4,
|
|
,
|
|
#END |