Files
TJA-by-song-no/tja/886.tja
2026-03-04 23:59:27 +09:00

374 lines
3.8 KiB
Plaintext

//TJADB Project
TITLE:Hello! Don-chan
TITLEJA:ハロー!どんちゃん
SUBTITLE:--Yuri Misumi
BPM:140
WAVE:Hello! Don-chan.ogg
OFFSET:-1.954
DEMOSTART:53.355
COURSE:Oni
LEVEL:7
SCOREINIT:820
SCOREDIFF:235
#START
11201120,
11210120,
11201120,
11210120,
11201120,
11210120,
11201120,
11210120,
1,
1003,
01121011,
11010011,
11000011,
11010110,
01121011,
11010021,
10010021,
11010021,
10010021,
11010021,
10010021,
11010021,
10010021,
11010021,
10010021,
10101110,
10221022,
10221022,
12221222,
12121000,
#GOGOSTART
0011102010221020,
1011102010001000,
0011102010221020,
1011102010001000,
0011102010221020,
1011102010001000,
1,
0010102010221020,
1011102010001000,
0010102010221020,
1011102010001000,
0010102010221020,
#BPMCHANGE 139.68
0010102010221020,
#GOGOEND
10000021,
#BPMCHANGE 140.25
1,
10000021,
#BPMCHANGE 140.31
1,
#BPMCHANGE 139.92
10000021,
1,
#BPMCHANGE 140
1111,
500000000000000000000000000000000000000008000000,
#GOGOSTART
0011102010221020,
1011102010001000,
0011102010221020,
1011102010001000,
0011102010221020,
1011102010001000,
01111211,
000000500000000000000000000000000000000000000008,
0011,
01121101,
0011102010001000,
01121101,
#BPMCHANGE 139.9
0011102010001000,
#BPMCHANGE 139.93
1,
#BPMCHANGE 140.8
10000001,
#BPMCHANGE 139.53
01030000,
#END
COURSE:Hard
LEVEL:4
#START
11201120,
10210120,
11201120,
10210000,
11201120,
10210120,
11201120,
10210120,
1,
1003,
01121010,//10
11010010,
11000010,
11010110,
01121010,
11010020,
10010020,
11010020,
10010021,
10010021,
10010021,
10010021,
10010021,
10010021,
10010021,
1111,
10221022,
10221022,
12201220,
3330,//30
#GOGOSTART
0011100010222020,
0011102020001000,
0011100010222020,
0011102020001000,
0011100010222020,
0011102020001000,
1,
01121220,
1011102020001000,
01121220,
1011102020001000,
01121222,
#BPMCHANGE 139.68
01121222,//43
#GOGOEND
10000021,
#BPMCHANGE 140.25
1,
10000021,
#BPMCHANGE 140.31
1,
#BPMCHANGE 139.92
10000021,
1,
#BPMCHANGE 140
1111,
500000000000000000000000000000000000000008000000,//51
#GOGOSTART
0011100010222020,
0011102020001000,
0011100010222020,
0011102020001000,
0011100010222020,
0011102020001000,
01011211,
000000500000000000000000000000000000000000000008,
0011,
01121101,
0011102010001000,
01121101,
#BPMCHANGE 139.9
0011102010001000,
#BPMCHANGE 139.93
1,
#BPMCHANGE 140.8
10000001,
#BPMCHANGE 139.53
01030000,
,
,
#END
COURSE:Normal
LEVEL:3
#START
0101,
00110010,
0101,
00110000,
0101,
00110010,
0101,
00110010,
1,
1013,//10
0101,
0112,
0101,
11010000,
0101,
0112,
0101,
11010000,
11020010,
11020000,
11020010,
11020000,
11020010,
11020000,
11020010,
0122,
11,
11,
1111,
1130,//30
#GOGOSTART
02011100,
02201010,
02011100,
02201010,
02011100,
02201010,
1,
500000000000000000000000000000000000000000000008,
,
20112011,
1110,
20112011,
#BPMCHANGE 139.68
20112011,//43
#GOGOEND
20000002,
#BPMCHANGE 140.25
2,
20000002,
#BPMCHANGE 140.31
2,
#BPMCHANGE 139.92
20000002,
2,
#BPMCHANGE 140
2222,
500000000000000000000000000000000000000008000000,//51
#GOGOSTART
02011100,
02201010,
02011100,
02201010,
02011100,
02201010,
1,
500000000000000000000000000000000000000000000008,
,
02011100,
02201010,
02011100,
#BPMCHANGE 139.9
02201010,
#BPMCHANGE 139.93
1,
#BPMCHANGE 140.8
10000001,
#BPMCHANGE 139.53
01030000,
,
,
#END
COURSE:Easy
LEVEL:3
#START
31,
1,
11,
1,
11,
1,
11,
1,
1,
3,//10
11,
12,
11,
12,
11,
12,
11,
1,
1,
11,
1,
11,
1,
11,
1,
0122,
11,
11,
1111,
1130,//30
#GOGOSTART
0110,
12,
0110,
12,
0110,
12,
3,
500000000000000000000000000000000000000000000008,
,
1,
,
1,
#BPMCHANGE 139.68
,//43
#GOGOEND
20000002,
#BPMCHANGE 140.25
2,
20000002,
#BPMCHANGE 140.31
2,
#BPMCHANGE 139.92
20000002,
2,
#BPMCHANGE 140
22,
500000000000000000000000000000000000000008000000,//51
#GOGOSTART
0110,
12,
0110,
12,
0110,
12,
3,
500000000000000000000000000000000000000000000008,
,
1110,
12,
1110,
#BPMCHANGE 139.9
12,
#BPMCHANGE 139.93
1,
#BPMCHANGE 140.8
10000001,
#BPMCHANGE 139.53
01030000,
,
,
#END