Files
TJA-by-song-no/tja/891.tja
2026-03-04 23:59:27 +09:00

624 lines
6.7 KiB
Plaintext

//TJADB Project
TITLE:Kathiawar no Cutlass
TITLEJA:カッティアワールの宝剣
SUBTITLE:--YMY & taichi hiyama & Ryosuke Tomita
SUBTITLEJA:山本由貴子
BPM:120.5
WAVE:Kathiawar no Cutlass.ogg
OFFSET:-2.651
DEMOSTART:60.152
//Shinuchi: 6070/3870/2080/1550
COURSE:Oni
LEVEL:8
BALLOON:
SCOREINIT:510,1570
SCOREDIFF:128
#START
#MEASURE 5/8
0,
0,
1021021020,
1021021010,
1021021020,
#MEASURE 3/4
102202203000,
#MEASURE 5/8
1021021020,
2212212020,
1021021020,
2212212020,
1022011221,
1022011221,
1021021020,
1021022210,
1021021010,
2212212020,
1021021020,
2212212020,
1022011221,
1022011221,
1022011120,
#MEASURE 3/4
333000,
#MEASURE 5/8
2002001020,
2002001122,
1022101022,
1122112210,
2002001120,
2002001020,
2211202112,
2011221120,
2002001020,
2002001122,
1122101221,
1022112210,
1002002210,
2002001120,
1022112211,
#MEASURE 3/4
202020200200000100100000000000000000,//38
#MEASURE 5/8
#GOGOSTART
1021011210,
1021011210,
1021011210,
1021012211,
1021011210,
1021011221,
1022011011,
2210002221,
1021011210,
1021011210,
1021011210,
1021012211,
1021011210,
1021011221,
#MEASURE 3/4
100000202020200100100000400000000000,//53
#GOGOEND
#MEASURE 2/4
5,
#MEASURE 5/8
000000000000000000000000000008,
#MEASURE 2/4
0,
#MEASURE 5/8
200000000200000000202020200000,
#MEASURE 2/4
01222212,
#MEASURE 5/8
1002012212,
#MEASURE 2/4
10020112,
#MEASURE 5/8
1021021020,
#MEASURE 2/4
01222212,
#MEASURE 5/8
1002012212,
#MEASURE 2/4
10012212,
#MEASURE 5/8
1021021020,
#MEASURE 2/4
20210210,
#MEASURE 5/8
1221122111,
#MEASURE 2/4
12212212,
#MEASURE 5/8
2122111221,
#MEASURE 2/4
12212012,
#MEASURE 5/8
200100200000202020202020202020,
100000200200000100100000202020,
#MEASURE 3/4
243000,//73
#MEASURE 5/8
#GOGOSTART
1021011210,
1021011210,
1021011210,
1021011221,
1021011210,
1021012211,
1022011011,
2210001122,
1021021122,
1021012211,
2112112211,
100000200100000100101010101010,
1021012212,
100222211112222,
#MEASURE 3/4
100000202020000100100000400000000000,//88
#GOGOEND
#MEASURE 5/8
3002002020,
2002002020,
2002002020,
2002002020,
1021021020,
1021021020,
2212212211,
222111100000000,
0,
0,
0,
#END
COURSE:Hard
LEVEL:7
BALLOON:
SCOREINIT:550,2150
SCOREDIFF:145
#START
#MEASURE 5/8
0,
0,
1001001020,
1001001010,
1001001020,
#MEASURE 3/4
100101103000,
#MEASURE 5/8
1001001010,
2022022020,
1002011010,
2022022020,
1002011020,
1002011020,
1002001020,
500000000000000000000008000000,
1001001010,
2022022020,
1002011010,
2022022020,
1002011020,
1002011020,
1002011020,
#MEASURE 3/4
333000,
#MEASURE 5/8
2002001020,
1001002220,
1002001020,
1002002220,
2002001020,
1001002020,
2220102220,
1022202010,
2002001020,
1001002220,
1002002220,
1022202220,
2002001020,
1001002020,
1002001020,
#MEASURE 3/4
101101100000,//38
#MEASURE 5/8
#GOGOSTART
1011011020,
1011011110,
1011011020,
1011011110,
1011011020,
1011011110,
1022011020,
33000,
1011011020,
1011011110,
1011011020,
1011011110,
1011011020,
1011011110,
#MEASURE 3/4
102201104000,//53
#GOGOEND
#MEASURE 2/4
5,
#MEASURE 5/8
000000000000000008000000000000,
#MEASURE 2/4
20020000,
#MEASURE 5/8
2002002020,
#MEASURE 2/4
10020011,
#MEASURE 5/8
1002001020,
#MEASURE 2/4
10020011,
#MEASURE 5/8
1002001020,
#MEASURE 2/4
10020011,
#MEASURE 5/8
1002001020,
#MEASURE 2/4
10020111,
#MEASURE 5/8
1002001020,
#MEASURE 2/4
20010020,
#MEASURE 5/8
2011022010,
#MEASURE 2/4
22201102,
#MEASURE 5/8
2011022010,
#MEASURE 2/4
20111020,
#MEASURE 5/8
1110222010,
1011011010,
#MEASURE 3/4
333000,//73
#MEASURE 5/8
#GOGOSTART
1011011020,
1011011110,
1011011020,
1011011110,
1011011020,
1011011110,
1022011020,
3030001111,
1022011020,
1022011110,
1022011020,
1022011110,
1022011111,
1022011020,
#MEASURE 3/4
102201104000,//88
#GOGOEND
#MEASURE 5/8
3,
2002000000,
1002000000,
2002000000,
1002011020,
1002011020,
1011011010,
33300,
0,
0,
0,
#END
COURSE:Normal
LEVEL:5
BALLOON:3,3,3,3,15,13
SCOREINIT:750,4290
SCOREDIFF:213
#START
#MEASURE 5/8
0,
0,
1001001000,
1001001000,
1001001000,
#MEASURE 3/4
100100103000,
#MEASURE 5/8
1001001010,
70080,
1001001010,
70080,
1002001000,
1002001000,
1001001010,
600000000000000008000000000000,
1001001010,
70080,
1001001010,
70080,
1002001000,
1002001000,
1002001000,
#MEASURE 3/4
333000,
#MEASURE 5/8
20022,
20022,
1005000000,
000000000000008000000000000000,
20022,
20022,
100500000,
000000000000008000000000000000,
10022,
10022,
100500000,
000000000000008000000000000000,
10022,
10011,
500000000000000008000000000000,
#MEASURE 3/4
33,//38
#MEASURE 5/8
#GOGOSTART
1001001010,
1001001000,
1001001010,
1,
1001001010,
1001001000,
1002001000,
600000000000000008000000000000,
1001001010,
1001001000,
1001001010,
1,
1001001010,
1001001000,
#MEASURE 3/4
1230,//53
#GOGOEND
#MEASURE 2/4
7,
#MEASURE 5/8
0,
#MEASURE 2/4
8,
#MEASURE 5/8
0,
#MEASURE 2/4
10010000,
#MEASURE 5/8
1001001010,
#MEASURE 2/4
10010000,
#MEASURE 5/8
1002001000,
#MEASURE 2/4
10010000,
#MEASURE 5/8
1001001010,
#MEASURE 2/4
10010000,
#MEASURE 5/8
1002001000,
#MEASURE 2/4
10020010,
#MEASURE 5/8
1001001010,
#MEASURE 2/4
10020010,
#MEASURE 5/8
1001001000,
#MEASURE 2/4
1121,
#MEASURE 5/8
12101,
1001001000,
#MEASURE 3/4
333000,//73
#MEASURE 5/8
#GOGOSTART
1001001010,
1001001000,
1001001010,
1,
1001001010,
1001001000,
1002001000,
600000000000000008000000000000,
1002001010,
1002001000,
1002001010,
500000000000000008000000000000,
1002001010,
1002001000,
#MEASURE 3/4
1130,//88
#GOGOEND
#MEASURE 5/8
7,
0,
8,
0,
1001001010,
1001001010,
1001001010,
33300,
0,
0,
0,
#END
COURSE:Easy
LEVEL:4
BALLOON:3,3,3,3,9,9
SCOREINIT:710,6800
SCOREDIFF:233
#START
#MEASURE 5/8
0,
0,
10010,
1001001000,
10010,
#MEASURE 3/4
13,
#MEASURE 5/8
10010,
70080,
10010,
70080,
10020,
10020,
10020,
600000000008000000000000000000,
10010,
70080,
10010,
70080,
10020,
10020,
10020,
#MEASURE 3/4
330,
#MEASURE 5/8
20020,
20020,
1005000000,
000000000000008000000000000000,
20020,
20020,
1005000000,
000000000000008000000000000000,
10020,
10020,
1005000000,
000000000000008000000000000000,
10020,
10010,
500000000008000000000000000000,
#MEASURE 3/4
33,//38
#MEASURE 5/8
#GOGOSTART
10010,
1001001000,
10010,
1,
10010,
1001001000,
10010,
600000000008000000000000000000,
10010,
1001001000,
10010,
1,
10010,
1001001000,
#MEASURE 3/4
13,//53
#GOGOEND
#MEASURE 2/4
7,
#MEASURE 5/8
0,
#MEASURE 2/4
8,
#MEASURE 5/8
0,
#MEASURE 2/4
1,
#MEASURE 5/8
1001000000,
#MEASURE 2/4
1,
#MEASURE 5/8
1001000000,
#MEASURE 2/4
1,
#MEASURE 5/8
1001000000,
#MEASURE 2/4
1,
#MEASURE 5/8
1001000000,
#MEASURE 2/4
2,
#MEASURE 5/8
2002000000,
#MEASURE 2/4
2,
#MEASURE 5/8
2002000000,
#MEASURE 2/4
1,
#MEASURE 5/8
1001000000,
1002000000,
#MEASURE 3/4
330,//73
#MEASURE 5/8
#GOGOSTART
10010,
1001001000,
10010,
1,
10010,
1001001000,
10010,
600000000008000000000000000000,
10010,
1001001000,
10020,
500000000008000000000000000000,
10010,
1001001000,
#MEASURE 3/4
14,//88
#GOGOEND
#MEASURE 5/8
7,
0,
8,
0,
1001001000,
1001001000,
10010,
30300,
0,
0,
0,
#END