Files
TJA-by-song-no/tja/895.tja
2026-03-04 23:59:27 +09:00

237 lines
2.6 KiB
Plaintext

//TJADB Project
TITLE:HIMAWARI HAPPY
TITLEJA:HIMAWARI HAPPY
SUBTITLE:--HIMAWARI Channel
SUBTITLEJA:HIMAWARIちゃんねる
BPM:125
WAVE:HIMAWARI HAPPY.ogg
OFFSET:-2.081
DEMOSTART:40.406
COURSE:Oni
LEVEL:2
BALLOON:16
SCOREINIT:1240
SCOREDIFF:458
#START
20022002,
02222020,
10202023,
01113020,
10212010,
11212220,
10202021,
01211120,
10212010,
11112020,
10202021,
01112220,
10011022,
10022011,
20011022,
10022011,
20200220,
10200220,
30030030,
300000000000600000000000000000000008000000000000,
#GOGOSTART
30203021,
01113040,
10211021,
11213030,
11102021,
01113040,
21202122,
600000000000000000000000000008000000200000200000,
10202220,
11112120,
#GOGOEND
10211021,
01111240,
10202023,
#BPMCHANGE 117
#SCROLL 1.06
01112220,
#BPMCHANGE 114
#SCROLL 1.09
700000000000000000000000000000000000000000000008,
#END
COURSE:Hard
LEVEL:2
BALLOON:8,15
SCOREINIT:1880
SCOREDIFF:570
#START
20002002,
0220,
10202006,
000000000000000000000008000000000000000000000000,
1210,
1112,
10202001,
01102020,
1210,
1122,
10202001,
01102020,
10011010,
20022000,
10011010,
20022000,
1202,
1202,
70000800,
,//20
#GOGOSTART
3232,
3330,
10211021,
1133,
11102020,
3330,
20202022,
600000000000000000000000000008000000000000000000,
12,
1122,//30
#GOGOEND
500000000000000000000008000000000000000000000000,
1014,
10202006,
#BPMCHANGE 121
#SCROLL 1.04
000000000000000000000008
#BPMCHANGE 118
#SCROLL 1.06
000000000000000000000000,
9,
00008000,
,
,
,
#END
COURSE:Normal
LEVEL:1
BALLOON:6,12
#START
,
,
10000006,
000000000000000000000008000000000000000000000000,
11,
1110,
12,
1,
11,
1110,
12,
1,
1011,
12,
2022,
22,
1,
11,
70000800,
,//20
#GOGOSTART
33,
3330,
11,
3,
11,
3330,
22,
600000000000000000000000000008000000000000000000,
12,
12,//30
#GOGOEND
500000000000000000000000000008000000000000000000,
1,
10000006,
#BPMCHANGE 121
#SCROLL 1.04
000000000000000000000008
#BPMCHANGE 118
#SCROLL 1.06
000000000000000000000000,
9,
09008000,
,
,
,
#END
COURSE:Easy
LEVEL:1
BALLOON:6,10
#START
,
,
10000006,
000000000000000000000008000000000000000000000000,
1,
11,
1,
,
1,
11,
1,
,
1,
1,
2,
2,
1,
1,
70000800,
,//20
#GOGOSTART
33,
3,
11,
3,
11,
3,
22,
600000000000000000000000000008000000000000000000,
1,
1,//30
#GOGOEND
500000000000000000000000000008000000000000000000,
,
10000006,
#BPMCHANGE 121
#SCROLL 1.04
000000000000000000000008
#BPMCHANGE 118
#SCROLL 1.06
000000000000000000000000,
9,
09008000,
,
,
,
#END