Files
TJA-by-song-no/tja/911.tja
2026-03-04 23:59:27 +09:00

1014 lines
10 KiB
Plaintext

//TJADB Project
TITLE:Kamisama no Iutoori ni
TITLEJA:神様の言うとおりに
SUBTITLE:--LATU LATU
SUBTITLEJA:ラトゥラトゥ(タケヤキ翔×マイキ)
BPM:165
WAVE:Kamisama no Iutoori ni.ogg
OFFSET:-1.635
DEMOSTART:50.718
COURSE:Edit
LEVEL:9
SCOREINIT:1200
SCOREDIFF:0
#START
#BARLINEOFF
#MEASURE 1/4
11,//1
#BARLINEON
#GOGOSTART
#MEASURE 4/4
1022102010210120,
1022102010210120,
1021112010211120,
1122112010202222,
1022102010210120,
1022102010210120,
1021112010211120,
1122112212221000,//9
#GOGOEND
1002201010001020,
1002201010404000,
1012201010111020,
1012201010111020,
11211121,
1012201010221020,
1012201010111020,
1012201010111020,
11211121,
1020121110202202,
1011201110122011,
1011201110212011,
1011201110122011,
1011201110212222,
1011201110122011,
1011201110212011,
1011201110122011,
1022220210112000,
1001001020001210,
100000000100000000101010200000000100000000100200,
1001001020001012,
100000000100000000101010200000000100200200200200,
1011101110112011,
1011101110112011,
100000200200200200200200200200200200100000101010,
2002002030000000,//35
#GOGOSTART
3002102011021020,
1222102011021020,
1002102011021020,
1222102010404011,//39
#GOGOEND
1002//40-1
#GOGOSTART
1020//40-2
#GOGOEND
1021//40-3
#GOGOSTART
1022,
1002102010211022,//41
#GOGOEND
1110//42-1
#GOGOSTART
2220//42-2
#GOGOEND
1210//42-3
#GOGOSTART
2220,
100100200200100100000200100000101010200000000000,
1002102010012020,
1222102010012020,
1002102010012020,
1002102010404011,//47
#GOGOEND
1002//48-1
#GOGOSTART
1020//48-2
#GOGOEND
1022//48-3
#GOGOSTART
1222,
100000000000100000101010200000000200000000200000,//49
#GOGOEND
300000000100000000101010100000000000100000100200,
100000000100000000101010100000100000400000000000,
100000000100000000101010100000000100000000100200,
100000000100000000101010200000000200100200200200,
100000000100000000101010100000000000100000100200,
100000000100000000101010100000100000400000000000,
100000000100000000101010100000000100000000100200,
100000000200200000100000100000000200200000101010,
2002002030000000,//58
#GOGOSTART
3002102011021020,
1222102011021020,
1002102011021020,
1222102010404011,//62
#GOGOEND
1002//63-1
#GOGOSTART
1020//63-2
#GOGOEND
1021//63-3
#GOGOSTART
1022,
1002102010211022,//64
#GOGOEND
1110//65-1
#GOGOSTART
2220//65-2
#GOGOEND
1110//65-3
#GOGOSTART
2220,
100100200200100100000200100000101010200000000000,
3002101020002011,
1001001120102011,
1002101020002011,
1001001120102222,//70
#GOGOEND
1020//71-1
#GOGOSTART
1120//71-2
#GOGOEND
1020//71-3
#GOGOSTART
1120,
1020112010210120,//72
#GOGOEND
1020//73-1
#GOGOSTART
1120//73-2
#GOGOEND
1020//73-3
#GOGOSTART
1120,
100000200200200200200200100000100100200000101010,//74
#GOGOEND
2002002030000000,//75
#GOGOSTART
3022102010201220,
1022102010201220,
1021112010211120,
1122112011212020,
1022102010201220,
1022102010201220,
1021112010211120,
100200000200100000100000100200000200500000000008,//83
#BARLINEOFF
#MEASURE 2/4
#GOGOEND
00200100,
#BARLINEON
#MEASURE 4/4
400000000300000000300000202010100000300000300000,
#END
COURSE:Oni
LEVEL:8
BALLOON:15
SCOREINIT:1790
SCOREDIFF:0
#START
#BARLINEOFF
#MEASURE 1/4
11,//1
#BARLINEON
#GOGOSTART
#MEASURE 4/4
1001102010001010,
1001102010002020,
10221022,
1001102010001010,
1001102010001010,
1001102010002020,
1002202010022020,
100000000100000000100000500000000000000000000008,//9
#GOGOEND
,
00000220,
1002201010002010,
1002201010000010,
10211021,
1002201010202010,
1002201010002010,
1002201010000010,
10211021,
1002201010202010,
30303304,
04044001,
1002201010022010,
1002201010222000,
30303304,
04044001,
1002201010022010,
1002201010222000,
1001001020002020,
1001001020020020,
1001001020002020,
1001001020000000,
1001102010102020,
1001102010102020,
500000000000000000000000000000000000000000000008,
00002222,//35
#GOGOSTART
1002201110022011,
1002201110202011,
1002201110022011,
1022201110202010,//39
#GOGOEND
1110//40-1
#GOGOSTART
2020//40-2
#GOGOEND
1110//40-3
#GOGOSTART
2020,
1110201020002010,//41
#GOGOEND
1110//42-1
#GOGOSTART
2020//42-2
#GOGOEND
1110//42-3
#GOGOSTART
2020,
1111200020202020,
1002201110022011,
1002201110202011,
1002201110022011,
1022201110202010,//47
#GOGOEND
1110//48-1
#GOGOSTART
2020//48-2
#GOGOEND
1110//48-3
#GOGOSTART
2020,
30333040,//49
#GOGOEND
70000008,
0004,
1001001010011010,
500000000000000000000000000000000000000008000000,
1001001110011010,
1001001110004000,
1001001110011010,
500000000000000000000000000000000000000000000008,
00002222,//58
#GOGOSTART
1002201110022011,
1022201110202011,
1002201110022011,
1022201110202010,//62
#GOGOEND
1110//63-1
#GOGOSTART
2020//63-2
#GOGOEND
1110//63-3
#GOGOSTART
2020,
1110201020002010,//64
#GOGOEND
1110//65-1
#GOGOSTART
2020//65-2
#GOGOEND
1110//65-3
#GOGOSTART
2020,
1111200020202020,
1002201020002020,
1002201020002020,
1002201020002020,
1022201110202010,//70
#GOGOEND
1110//71-1
#GOGOSTART
2020//71-2
#GOGOEND
1110//71-3
#GOGOSTART
2020,
1110201020002010,//72
#GOGOEND
1110//73-1
#GOGOSTART
2020//73-2
#GOGOEND
1110//73-3
#GOGOSTART
2020,
1110222011102000,//74
#GOGOEND
3434,//75
#GOGOSTART
6,
000000000000000000000000000000000000000000000008,
,
,
1001102010002020,
1001102010002020,
1001102010011020,
100000000100000000100000500000000000000000000008,//83
#BARLINEOFF
#MEASURE 2/4
#GOGOEND
,
#BARLINEON
#MEASURE 4/4
4004004000303030,
#END
COURSE:Hard
LEVEL:4
BALLOON:18,18,18,20
SCOREINIT:3120
SCOREDIFF:0
#START
#BARLINEOFF
#MEASURE 1/4
,//1
#BARLINEON
#GOGOSTART
#MEASURE 4/4
10101022,
10101022,
10221022,
10222000,
10101022,
10101022,
10221022,
500000000000000000000000000000000000000000000008,//9
#GOGOEND
,
00000220,
10011021,
10011001,
10011001,
10211020,
10011021,
10011001,
10011001,
10211020,
7,
00008001,
10211021,
10211020,
7,
00008001,
10211021,
10211020,
10012020,
10012000,
10012020,
10012000,
10121012,
10121012,
500000000000000000000000000000000000000000000008,
00002222,//35
#GOGOSTART
30033003,
30403001,
1212,
11221001,//39
#GOGOEND
10//40-1
#GOGOSTART
22//40-2
#GOGOEND
10//40-3
#GOGOSTART
22,
10201001,//41
#GOGOEND
10//42-1
#GOGOSTART
22//42-2
#GOGOEND
10//42-3
#GOGOSTART
22,
10002222,
10021002,
10201001,
1212,
11221001,//47
#GOGOEND
10//48-1
#GOGOSTART
22//48-2
#GOGOEND
10//48-3
#GOGOSTART
22,
30333040,//49
#GOGOEND
7,
0084,
10011000,
500000000000000000000000000008000000000000000000,
10011000,
10011040,
10011000,
500000000000000000000000000000000000000000000008,
00002222,//58
#GOGOSTART
30033003,
30403001,
1212,
11221001,//62
#GOGOEND
10//63-1
#GOGOSTART
22//63-2
#GOGOEND
10//63-3
#GOGOSTART
22,
1210,//64
#GOGOEND
10//65-1
#GOGOSTART
22//65-2
#GOGOEND
10//65-3
#GOGOSTART
22,
10002222,
10021002,
10201001,
1212,
11221000,//70
#GOGOEND
10//71-1
#GOGOSTART
22//71-2
#GOGOEND
10//71-3
#GOGOSTART
22,
1210,//72
#GOGOEND
10//73-1
#GOGOSTART
22//73-2
#GOGOEND
10//73-3
#GOGOSTART
22,
1122,//74
#GOGOEND
3344,//75
#GOGOSTART
9,
09,
8,
,
10121022,
10121022,
10121022,
500000000000000000000000000000000000000000000008,//83
#BARLINEOFF
#MEASURE 2/4
#GOGOEND
,
#BARLINEON
#MEASURE 4/4
4004004000303030,
#END
COURSE:Normal
LEVEL:4
BALLOON:13,13,13,15,6
SCOREINIT:6300
SCOREDIFF:0
#START
#BARLINEOFF
#MEASURE 1/4
,//1
#BARLINEON
#GOGOSTART
#MEASURE 4/4
1110,
1110,
22,
1,
1110,
1110,
22,
500000000000000000000000000000000000000000000008,//9
#GOGOEND
,
,
11,
1,
11,
1,
11,
1,
11,
1,
7,
08,
22,
2,
7,
08,
22,
2,
12,
12,
12,
12,
1110,
1110,
500000000000000000000000000000000000000000000008,
,//35
#GOGOSTART
33,
3330,
1111,
2220,//39
#GOGOEND
1//40-1
#GOGOSTART
2//40-2
#GOGOEND
1//40-3
#GOGOSTART
2,
1110,//41
#GOGOEND
1//42-1
#GOGOSTART
2//42-2
#GOGOEND
1//42-3
#GOGOSTART
2,
1,
11,
1110,
1111,
2220,//47
#GOGOEND
1//48-1
#GOGOSTART
2//48-2
#GOGOEND
1//48-3
#GOGOSTART
2,
3,//49
#GOGOEND
7,
08,
1,
500000000000000000000000000008000000000000000000,
1,
1,
1,
500000000000000000000000000000000000000000000008,
,//58
#GOGOSTART
33,
3330,
1111,
2220,//62
#GOGOEND
1//63-1
#GOGOSTART
2//63-2
#GOGOEND
1//63-3
#GOGOSTART
2,
1110,//64
#GOGOEND
1//65-1
#GOGOSTART
2//65-2
#GOGOEND
1//65-3
#GOGOSTART
2,
1,
12,
1120,
12,
1120,//70
#GOGOEND
1//71-1
#GOGOSTART
2//71-2
#GOGOEND
1//71-3
#GOGOSTART
2,
1110,//72
#GOGOEND
1//73-1
#GOGOSTART
2//73-2
#GOGOEND
1//73-3
#GOGOSTART
2,
1111,//74
#GOGOEND
3333,//75
#GOGOSTART
9,
09,
8,
,
1110,
1110,
1212,
500000000000000000000000000000000000000000000008,//83
#BARLINEOFF
#MEASURE 2/4
#GOGOEND
,
#BARLINEON
#MEASURE 4/4
7008,
#END
COURSE:Easy
LEVEL:3
BALLOON:10,10,7,12,4
SCOREINIT:8850
SCOREDIFF:0
#START
#BARLINEOFF
#MEASURE 1/4
,//1
#BARLINEON
#GOGOSTART
#MEASURE 4/4
11,
1,
11,
1,
11,
1,
11,
5,//9
#GOGOEND
8,
,
1,
1,
1,
1,
11,
1,
11,
1,
7,
08,
2,
2,
7,
08,
2,
2,
1,
2,
1,
2,
11,
11,
5,
8,//35
#GOGOSTART
33,
3330,
11,
1110,//39
#GOGOEND
1//40-1
#GOGOSTART
0//40-2
#GOGOEND
1//40-3
#GOGOSTART
0,
2220,//41
#GOGOEND
1//42-1
#GOGOSTART
0//42-2
#GOGOEND
1//42-3
#GOGOSTART
0,
2,
11,
1110,
11,
1110,//47
#GOGOEND
1//48-1
#GOGOSTART
0//48-2
#GOGOEND
1//48-3
#GOGOSTART
0,
3,//49
#GOGOEND
7,
08,
1,
50000800,
1,
1,
1,
5,
8,//58
#GOGOSTART
33,
3330,
11,
1110,//62
#GOGOEND
1//63-1
#GOGOSTART
0//63-2
#GOGOEND
1//63-3
#GOGOSTART
0,
2220,//64
#GOGOEND
1//65-1
#GOGOSTART
0//65-2
#GOGOEND
1//65-3
#GOGOSTART
0,
2,
11,
1,
11,
1,//70
#GOGOEND
1//71-1
#GOGOSTART
0//71-2
#GOGOEND
1//71-3
#GOGOSTART
0,
2220,//72
#GOGOEND
1//73-1
#GOGOSTART
0//73-2
#GOGOEND
1//73-3
#GOGOSTART
0,
1,//74
#GOGOEND
3333,//75
#GOGOSTART
9,
09,
8,
1110,
1110,
11,
5,
8,//83
#BARLINEOFF
#MEASURE 2/4
#GOGOEND
,
#BARLINEON
#MEASURE 4/4
7008,
#END