Files
TJA-by-song-no/tja/1027.tja
2026-03-04 23:59:27 +09:00

762 lines
22 KiB
Plaintext
Raw Blame History

This file contains ambiguous Unicode characters
This file contains Unicode characters that might be confused with other characters. If you think that this is intentional, you can safely ignore this warning. Use the Escape button to reveal them.
//TJADB Project
TITLE:Natsu Matsuri -JITTERIN JINN Version-
TITLEJA:夏祭り / ジッタリン・ジン
SUBTITLE:--JITTERIN JINN
BPM:70.916
WAVE:Natsu Matsuri -JITTERIN JINN Version-.ogg
OFFSET:-3.437
DEMOSTART:93.635
COURSE:Edit
LEVEL:10
BALLOON:10
SCOREINIT:1180
SCOREDIFF:0
#START
#SCROLL 1.00118449997
110000100000200000100000220000100000100000200000,
110000100000200000100000220000100000200000200000,
#BPMCHANGE 70.688
#SCROLL 1.00441376188
110000100000200000100000220000100000100000200000,
#BPMCHANGE 70.45
#SCROLL 1.00780695529
110000200000200000100000220000100000200000200000,
#BPMCHANGE 69.698
#SCROLL 1.01868059342
110000100000200000100000220000100000100000200000,
#BPMCHANGE 71.336
#SCROLL 0.9952898957
110000100000200000100000220000100000200000200000,
#BPMCHANGE 69.537
#SCROLL 1.02103915901
110000100000200000100000220000100000100000200000,
#GOGOSTART
#MEASURE 8/4
#BPMCHANGE 282
#SCROLL 1
100100100100100000000000100100100100100000000000100100100100100000000000200200200200200000000000,
100100100100100000000000100100100100100000000000100100100100100000000000200200200200200000000000,
100100100100100000000000100100100100100000000000100100100100100000000000200200200200200000000000,
100100100100100000000000100100100100100000000000100100100100100000000000200200200200200000200000,
#GOGOEND
100000000000200000000000100000100000200000000000100000000000200000000000100000100000200000000000,
100000000000200000100000100000100000200000000000100000000000200000000000100000100000200000200000,
100000000000200000000000100000100000200000000000100000000000200000000000100000100000200000000000,
100000000000200000100000100000100000200000000000100000000000200000000000100100200000200000200000,
100000000000000000200000100000000000200000000000100000000000000000200000100000000000200000000000,
500000000000000000000000000000000000000000000008000000000000000000000000200000000000200000000000,
100000000000000000200000100000000000200000000000100000000000000000200000100000000000200000000000,
500000000000000000000000000000000000000000000008000000000000000000000000100000200000200000000000,
100000000000200000000000100000100000200000000000100000000000200000000000100000100000200000000000,
100000000000200000100000100000100000200000000000100000000000200000000000100000100000200000200000,
100000000000200000000000100000100000200000000000100000000000200000000000100000100000200000000000,
100000000000200000100000100000100000200000000000100000000000200000000000100100200000200000200000,
100000000000000000200000100000000000200000000000100000000000000000200000100000000000200000000000,
500000000000000000000000000000000000000000000008000000000000000000000000200000000000200000000000,
100000000000000000200000100000000000200000000000100000000000000000200000100000000000200000000000,
500000000000000000000000000000000000000000000008000000000000200000200000200000200000200000200000,
#GOGOSTART
100000000000200000000000100100100000200000000000100000000000200000000000100100100000200000200000,
100000000000200000000000100100100000200000000000100000000000200000000000200200200000200000200000,
100000000000200000000000100100100000200000000000100000000000200000000000100100100000200000200000,
100100100000100000100000100000100000200000000000100100100000100000100000100000100000200000000000,
100000000000200000000000100100100000200000000000100000000000200000000000100100100000200000200000,
100000000000200000000000100100100000200000000000100000000000200000000000200200200000200000200000,
100000000000200000000000100100100000200000000000100000000000200000000000100100100000200000000000,
100100100100100000000000100100100100100000000000100100100100100000000000200200200200200000000000,
100100100100100000000000100100100100100000000000100100100100100000000000200200200200200000000000,
100100100100100000000000100100100100100000000000100100100100100000000000200200200200200000000000,
100100100100100000000000100100100100100000000000100100100100100000000000200200200200200000000000,
#GOGOEND
300000000000300000000020200000000000000000200000100000000000200000000000100000200000200000000000,
100000000000200000000000100000200000200000200000100000000000200000200000100000000000200200200000,
100000200000200000000000100000200000200000000000100000000000200000200000100000000000200000000000,
100000000000200200200000100000200000200000000000100000200000200000000000100000000000200000200000,
100100200000200000200000100000000000200000200000100000000000200000000000100000200000200000000000,
100100200000200000200000100000200000200200200000100000200000200000000000100000200000200000000000,
100000000000200000000000100100200000200000000000100000000000200000200000100100200000200000000000,
#MEASURE 4/4
#BPMCHANGE 141
#SCROLL 2
100200200200100200200200300000200200200200200200,
#GOGOSTART
#MEASURE 8/4
#BPMCHANGE 282
#SCROLL 1
100000000000200000000000100100100000200000000000100000000000200000000000100100100000200000200000,
100000000000200000000000100100100000200000000000100000000000200000000000200200200000200000200000,
100000000000200000000000100100100000200000000000100000000000200000000000100100100000200000200000,
100100100000100000100000100000100000200000000000100100100000100000100000100000100000200000000000,
100000000000200000000000100100100000200000000000100000000000200000000000100100100000200000200000,
100000000000200000000000100100100000200000000000100000000000200000000000200200200000200000200000,
100000000000200000000000100100100000200000000000100000000000200000000000100100100000200000200000,
700000000000000000000000000000000000000000000000800000000000200200200000200000200000200000200000,
100000000000200000200000100100100000200000000000100000000000200000200000100100100000200000200000,
100000000000200000200000100100100000200000000000100000000000200000200000100100200000200000200000,
100000000000200000200000100100100000200000000000100000000000200000200000100100100000200000200000,
100100100000100000100100100000100000200000000000100100100000100000100100100000100000200000000000,
100000000000200000200000100100100000200000000000100000000000200000200000100100100000200000200000,
100000000000200000200000100100100000200000000000100000000000200000200000100100200000200000200000,
100000000000200000200000100100100000200000000000100000000000200000200000100100100000200000200000,
100200100200100000000000100200100200100000000000100200100200100000000000200100200100200000000000,
100200100200100000000000100200100200100000000000100200100200100000000000200100200100200000000000,
100200100200100000000000100200100200100000000000100200100200100000000000200100200100200000000000,
100200100200100000000000100200100200100000000000
#GOGOEND
100100100100100000000000000000000000000000000000,
#END
COURSE:Oni
LEVEL:7
BALLOON:10,10
SCOREINIT:1710
SCOREDIFF:0
#START
#SCROLL 1.00118449997
100000000000100000000000200000000000100000200000,
100000000000100000000000200000000000200000200000,
#BPMCHANGE 70.688
#SCROLL 1.00441376188
100000000000100000000000200000000000100000200000,
#BPMCHANGE 70.45
#SCROLL 1.00780695529
300000000000000000000000400000000000000000000000,
#BPMCHANGE 69.698
#SCROLL 1.01868059342
100000000000100000000000200000000000100000200000,
#BPMCHANGE 71.336
#SCROLL 0.9952898957
100000000000100000000000200000000000200000200000,
#BPMCHANGE 69.537
#SCROLL 1.02103915901
100000000000100000000000200000000000100000200000,
#GOGOSTART
#MEASURE 8/4
#BPMCHANGE 282
#SCROLL 0.5
100000100000100000000000100000100000100000000000100000100000100000000000200000200000200000000000,
100000100000100000000000100000100000100000000000100000100000100000000000200000200000200000000000,
100000100000100000000000100000100000100000000000100000100000100000000000200000200000200000000000,
100000100000100000000000100000100000100000000000100000100000100000000000200000200000200000000000,
#GOGOEND
100000000000200000000000100000100000100000000000100000000000200000000000100000100000100000000000,
100000000000200000100000100000000000200000000000100000000000200000000000100000100000200000000000,
100000000000200000000000100000100000100000000000100000000000200000000000100000100000100000000000,
100000000000200000100000100000000000200000000000100000000000200000000000100000100000200000000000,
100000000000000000200000100000000000200000000000100000000000000000200000100000000000200000000000,
500000000000000000000000000000000000000000000008000000000000000000000000200000000000200000000000,
100000000000000000200000100000000000200000000000100000000000000000200000100000000000200000000000,
500000000000000000000000000000000000000000000008000000000000000000000000200000000000200000000000,
100000000000200000000000100000100000100000000000100000000000200000000000100000100000100000000000,
100000000000200000100000100000000000200000000000100000000000200000000000100000100000200000000000,
100000000000200000000000100000100000100000000000100000000000200000000000100000100000100000000000,
100000000000200000100000100000000000200000000000100000000000200000000000100000100000200000000000,
100000000000000000200000100000000000200000000000100000000000000000200000100000000000200000000000,
500000000000000000000000000000000000000000000008000000000000000000000000200000000000200000000000,
100000000000000000200000100000000000200000000000100000000000000000200000100000000000200000000000,
500000000000000000000000000000000000000000000008000000000000100000100000100000100000100000100000,
#GOGOSTART
100000000000200000000000100000100000100000000000100000000000200000000000100000100000200000000000,
100000000000200000000000100000100000100000000000100000000000200000000000100000100000200000000000,
100000000000200000000000100000100000100000000000100000000000200000000000100000100000200000000000,
500000000000000000000000000000000008000000000000500000000000000000000000000000000008000000000000,
100000000000200000000000100000100000100000000000100000000000200000000000100000100000200000000000,
100000000000200000000000100000100000100000000000100000000000200000000000100000100000200000000000,
100000000000200000000000100000100000100000000000100000000000200000000000100000000000000000000000,
100000100000100000000000100000100000100000000000100000100000100000000000200000200000200000000000,
100000100000100000000000100000100000100000000000100000100000100000000000200000200000200000000000,
100000100000100000000000100000100000100000000000100000100000100000000000200000200000200000000000,
100000100000100000000000100000100000100000000000100000100000100000000000200000200000200000000000,
#GOGOEND
300000000000300000000000200000000000000000200000000000000000200000000000200000200000200000000000,
200000000000200000000000200000200000200000000000200000000000200000200000200000000000200000000000,
200000200000200000000000200000200000200000000000200000000000200000200000200000000000200000000000,
200000000000200000000000200000200000200000000000200000200000200000000000200000000000200000000000,
200000200000200000200000200000000000200000200000200000000000200000000000200000200000200000000000,
200000000000200000200000200000000000200000000000200000200000200000000000200000200000200000000000,
200000000000200000000000200000200000200000000000200000000000200000000000200000200000200000000000,
#MEASURE 4/4
#BPMCHANGE 141
#SCROLL 1
200000000200000000200000400000100100100100100100,
#GOGOSTART
#MEASURE 8/4
#BPMCHANGE 282
#SCROLL 0.5
#BRANCHSTART p,90,90
#N
1020111010201120,
1020111010201120,
1020111010201120,
500000000000000000000000000000000008000000000000500000000000000000000000000000000008000000000000,
1020111010201120,
1020111010201120,
1020112010201120,
7000000080111111,
1020112010201122,
1020112010201122,
1020112010201122,
500000000000000000000000000000000008000000000000500000000000000000000000000000000008000000000000,
1020112010201122,
1020112010201122,
1020112010201000,
1110111011102220,
1110111011102220,
1110111011102220,
11101110
#GOGOEND
11100000,
#E
,
,
,
,
,
,
,
,
,
,
,
,
,
,
,
,
,
,
,
#M
1020112010201122,
1020112010201122,
1020112010201122,
500000000000000000000000000000000008000000000000500000000000000000000000000000000008000000000000,
1020112010201122,
1020112010201122,
1020112010201122,
7000000080111111,
1020112010221122,
1020112010221122,
1020112010221122,
500000000000000000000000000000000008000000000000500000000000000000000000000000000008000000000000,
1020112010221122,
1020112010221122,
1020112010221000,
1210121012102120,
1210121012102120,
1210121012102120,
12101210
#GOGOEND
11100000,
#BRANCHEND
#END
COURSE:Hard
LEVEL:6
BALLOON:8,8
SCOREINIT:2210
SCOREDIFF:0
#START
#SCROLL 1.00118449997
100000000000100000000000200000000000100000100000,
100000000000100000000000200000000000200000200000,
#BPMCHANGE 70.688
#SCROLL 1.00441376188
100000000000100000000000200000000000100000100000,
#BPMCHANGE 70.45
#SCROLL 1.00780695529
300000000000000000000000400000000000000000000000,
#BPMCHANGE 69.698
#SCROLL 1.01868059342
100000000000100000000000200000000000100000100000,
#BPMCHANGE 71.336
#SCROLL 0.9952898957
100000000000100000000000200000000000200000200000,
#BPMCHANGE 69.537
#SCROLL 1.02103915901
100000000000100000000000200000000000100000100000,
#GOGOSTART
#MEASURE 8/4
#BPMCHANGE 282
#SCROLL 0.5
100100100000100100100000100100100000200000000000,
100100100000100100100000100100100000200000000000,
100100100000100100100000100100100000200000000000,
100100100000100100100000100100100000200000000000,
#GOGOEND
100000000000100000100000100000000000100000100000,
100000000100100000100000200000000000100000100000,
100000000000100000100000100000000000100000100000,
100000000100100000100000200000000000200000200000,
100000000000100000000000100000000000100000100000,
50008022,
100000000000100000000000100000000000100000100000,
50008022,
100000000000100000100000100000000000100000100000,
100000000100100000100000200000000000100000100000,
100000000000100000100000100000000000100000100000,
100000000100100000100000200000000000200000200000,
100000000000100000000000100000000000100000100000,
50008022,
100000000000100000000000100000000000100000100000,
5000000080111110,
#GOGOSTART
100000000000100000000000200000000000100100100000,
100000000000100000000000200000000000200200200000,
100000000000100000000000200000000000100100100000,
500000000000000008000000500000000000000008000000,
100000000000100000000000200000000000100100100000,
100000000000100000000000200000000000200200200000,
100000000000100000000000200000000000200000000000,
100100100000100100100000100100100000200000000000,
100100100000100100100000100100100000200000000000,
100100100000100100100000100100100000200000000000,
100100100000100100100000100100100000200000000000,
#GOGOEND
300000300000200000000200000000200000200200200000,
200000200000200200200000200000200200200000000000,
200200200000200200200000200000200200200000200000,
200000200000200200200000200200200000200000000000,
200200200200200000200000200000200000200200200000,
200000200200200000200000200200200000200000000000,
200000200000200200200000200000200000200200200000,
#MEASURE 4/4
#BPMCHANGE 141
#SCROLL 1
200000000200000000200000400000100100100100100000,
#GOGOSTART
#MEASURE 8/4
#BPMCHANGE 282
#SCROLL 0.5
#BRANCHSTART p,90,90
#N
1000100020001110,
1000100020002220,
1000100020001110,
500000000000000008000000500000000000000008000000,
1000100020001110,
1000100020002220,
1000100020001110,
7000000080111110,
1000100010201110,
1000100010202220,
1000100010201110,
500000000000000008000000500000000000000008000000,
1000100010201110,
1000100010202220,
1000100010201000,
1110111011102000,
1110111011102000,
1110111011102000,
11101110
#GOGOEND
11100000,
#E
,
,
,
,
,
,
,
,
,
,
,
,
,
,
,
,
,
,
,
#M
1000100010201110,
1000100010202220,
1000100010201110,
500000000000000008000000500000000000000008000000,
1000100010201110,
1000100010202220,
1000100010201110,
7000000080111110,
1020102010201110,
1020102010202220,
1020102010201110,
500000000000000008000000500000000000000008000000,
1020102010201110,
1020102010202220,
12121210,
1110111011102220,
1110111011102220,
1110111011102220,
11101110
#GOGOEND
11100000,
#BRANCHEND
#END
COURSE:Normal
LEVEL:4
BALLOON:5,5
SCOREINIT:3970
SCOREDIFF:0
#START
#SCROLL 1.00118449997
100000000000100000000000100000000000100000100000,
100000000000100000000000200000000000000000000000,
#BPMCHANGE 70.688
#SCROLL 1.00441376188
100000000000100000000000100000000000100000100000,
#BPMCHANGE 70.45
#SCROLL 1.00780695529
300000000000000000000000300000000000000000000000,
#BPMCHANGE 69.698
#SCROLL 1.01868059342
100000000000100000000000100000000000100000100000,
#BPMCHANGE 71.336
#SCROLL 0.9952898957
100000000000100000000000200000000000000000000000,
#BPMCHANGE 69.537
#SCROLL 1.02103915901
100000000000100000000000100000000000000000000000,
#GOGOSTART
#MEASURE 8/4
#BPMCHANGE 282
#SCROLL 0.5
300000000000300000000000300000000000400000000000,
300000000000300000000000300000000000400000000000,
300000000000300000000000300000000000400000000000,
300000000000300000000000300000000000000000000000,
#GOGOEND
100000000000100000100000100000000000100000000000,
100000000000100000100000200000000000000000000000,
100000000000100000100000100000000000100000000000,
100000000000100000100000200000000000000000000000,
100000000000100000000000100000000000100000100000,
58,
100000000000100000000000100000000000100000100000,
58,
100000000000100000100000100000000000100000000000,
100000000000100000100000200000000000000000000000,
100000000000100000100000100000000000100000000000,
100000000000100000100000200000000000000000000000,
100000000000100000000000100000000000100000100000,
58,
100000000000100000000000100000000000100000100000,
58,
#GOGOSTART
100000000000100000000000200000000000100000100000,
100000000000100000000000200000000000000000000000,
100000000000100000000000200000000000100000100000,
58,
100000000000100000000000200000000000100000100000,
100000000000100000000000200000000000000000000000,
100000000000100000000000200000000000200000000000,
300000000000300000000000300000000000400000000000,
300000000000300000000000300000000000400000000000,
300000000000300000000000300000000000400000000000,
300000000000300000000000300000000000400000000000,
#GOGOEND
300000300000000000000000200000000000200000000000,
200000200000200000000000200000000000000000000000,
200000000000200000000000200000000000200000000000,
200000200000200000000000200000000000000000000000,
200000200000200000000000200000000000200000000000,
200000200000200000000000200000000000000000000000,
200000200000200000000000200000200000200000000000,
#MEASURE 4/4
#BPMCHANGE 141
#SCROLL 1
200000000200000000200000400000000000000000000000,
#GOGOSTART
#MEASURE 8/4
#BPMCHANGE 282
#SCROLL 0.5
#BRANCHSTART p,90,90
#N
10201011,
1120,
10102011,
500000000000000000000008000000000000000000000000,
10102011,
1120,
10102011,
78,
10102022,
1120,
10102022,
500000000000000000000008000000000000000000000000,
10102022,
1120,
1122,
3334,
3334,
3334,
33
#GOGOEND
30,
#E
,
,
,
,
,
,
,
,
,
,
,
,
,
,
,
,
,
,
,
#M
10102022,
1120,
10102022,
500000000000000000000008000000000000000000000000,
10102022,
1120,
10102022,
78,
10102022,
10102011,
10102022,
500000000000000000000008000000000000000000000000,
10102022,
10102011,
1122,
33303340,
33303340,
33303340,
3330
#GOGOEND
3300,
#BRANCHEND
#END
COURSE:Easy
LEVEL:4
BALLOON:4,4
SCOREINIT:5660
SCOREDIFF:0
#START
#SCROLL 1.00118449997
100000000000100000000000100000000000000000000000,
100000000000100000000000200000000000000000000000,
#BPMCHANGE 70.688
#SCROLL 1.00441376188
100000000000100000000000100000000000000000000000,
#BPMCHANGE 70.45
#SCROLL 1.00780695529
300000000000000000000000400000000000000000000000,
#BPMCHANGE 69.698
#SCROLL 1.01868059342
100000000000100000000000100000000000000000000000,
#BPMCHANGE 71.336
#SCROLL 0.9952898957
100000000000100000000000200000000000000000000000,
#BPMCHANGE 69.537
#SCROLL 1.02103915901
100000000000100000000000100000000000000000000000,
#GOGOSTART
#MEASURE 8/4
#BPMCHANGE 282
#SCROLL 0.5
300000000000300000000000300000000000000000000000,
300000000000300000000000300000000000000000000000,
300000000000300000000000300000000000000000000000,
300000000000300000000000300000000000000000000000,
#GOGOEND
100000000000000000000000100000000000000000000000,
100000000000100000000000200000000000000000000000,
100000000000000000000000100000000000000000000000,
100000000000100000000000200000000000000000000000,
100000000000100000000000100000000000000000000000,
58,
100000000000100000000000100000000000000000000000,
58,
100000000000000000000000100000000000000000000000,
100000000000100000000000200000000000000000000000,
100000000000000000000000100000000000000000000000,
100000000000100000000000200000000000000000000000,
100000000000100000000000100000000000000000000000,
58,
100000000000100000000000100000000000000000000000,
58,
#GOGOSTART
100000000000100000000000100000000000000000000000,
100000000000100000000000200000000000000000000000,
100000000000100000000000100000000000100000000000,
58,
100000000000100000000000100000000000000000000000,
100000000000100000000000200000000000000000000000,
100000000000100000000000100000000000000000000000,
300000000000300000000000300000000000000000000000,
300000000000300000000000300000000000000000000000,
300000000000300000000000300000000000000000000000,
300000000000300000000000300000000000000000000000,
#GOGOEND
300000000000000000000000200000000000200000000000,
200000000000200000000000200000000000000000000000,
200000000000000000000000200000000000200000000000,
200000000000200000000000200000000000000000000000,
200000000000000000000000200000000000200000000000,
200000000000200000000000200000000000000000000000,
200000000000000000000000200000000000200000000000,
#MEASURE 4/4
#BPMCHANGE 141
#SCROLL 1
200000000000000000000000400000000000000000000000,
#GOGOSTART
#MEASURE 8/4
#BPMCHANGE 282
#SCROLL 0.5
#BRANCHSTART p,90,90
#N
1110,
1120,
1111,
58,
1110,
1120,
1111,
78,
1120,
1120,
1111,
58,
1120,
1120,
1110,
3330,
3330,
3330,
33
#GOGOEND
30,
#E
,
,
,
,
,
,
,
,
,
,
,
,
,
,
,
,
,
,
,
#M
1111,
1120,
1111,
58,
1111,
1120,
1111,
78,
1122,
1120,
1122,
58,
1122,
1120,
1122,
3334,
3334,
3334,
33
#GOGOEND
30,
#BRANCHEND
#END