1424 lines
16 KiB
Plaintext
1424 lines
16 KiB
Plaintext
//TJADB Project
|
|
TITLE:Zouo to Shuuaku no Hanataba
|
|
TITLEJA:憎悪と醜悪の花束
|
|
SUBTITLE:--t+pazolite
|
|
SUBTITLEJA:t+pazolite
|
|
BPM:140
|
|
WAVE:Zouo to Shuuaku no Hanataba.ogg
|
|
OFFSET:-1.931
|
|
DEMOSTART:13.07
|
|
|
|
COURSE:Edit
|
|
LEVEL:10
|
|
BALLOON:11,3,29,4,13,7
|
|
SCOREINIT:300,850
|
|
SCOREDIFF:63
|
|
|
|
|
|
#START
|
|
|
|
|
|
#SCROLL 2.5
|
|
3,
|
|
#BARLINEOFF
|
|
#SCROLL 1
|
|
00000022,
|
|
|
|
#BARLINEON
|
|
1000001020020022,
|
|
0010202200002020,
|
|
1000001020020022,
|
|
#MEASURE 7/4
|
|
00001000
|
|
#BPMCHANGE 280
|
|
#SCROLL 0.5
|
|
2000000020200000000202000000002020202020
|
|
20202020,
|
|
#MEASURE 4/4
|
|
#SCROLL 1
|
|
7008,
|
|
|
|
#GOGOSTART
|
|
#BPMCHANGE 295
|
|
1110201110201110,
|
|
200000000000100100200000500008000000200000000000,
|
|
1110201110201110,
|
|
200000000000200200100000500008000000100000000000,
|
|
1110201110201110,
|
|
200000000000100100200000500008000000200000000000,
|
|
#GOGOEND
|
|
32014101,
|
|
40223122,
|
|
|
|
#GOGOSTART
|
|
500008000000100000200000100000200000100000200000,
|
|
1111201111201000,
|
|
500008000000200000100000200000100000200000100000,
|
|
2111102111102000,
|
|
500008000000100000200000500008000000100000200000,
|
|
100100200000100100200000100200100200500008000000,
|
|
#GOGOEND
|
|
22020202,
|
|
200000200000200020002000200200200200200200200200,
|
|
|
|
#GOGOSTART
|
|
1000102010221020,
|
|
100000200000100020002000100000200000100100100100,
|
|
1012102010001022,
|
|
100000000200100000200000500008000000200000000000,
|
|
#GOGOEND
|
|
#MEASURE 1/16
|
|
#BPMCHANGE 73.75
|
|
#SCROLL 8
|
|
,
|
|
#GOGOSTART
|
|
#BARLINEOFF
|
|
#MEASURE 3/4
|
|
#BPMCHANGE 295
|
|
#SCROLL 1
|
|
300010221020,
|
|
#BARLINEON
|
|
#MEASURE 4/4
|
|
1111200010221012,
|
|
#GOGOEND
|
|
100000000020000002000000200000000000200000000000,
|
|
1114,
|
|
|
|
#GOGOSTART
|
|
1111112121212222,
|
|
22121212
|
|
#GOGOEND
|
|
10002000,
|
|
#GOGOSTART
|
|
1012102010001022,
|
|
100000000200100000200000
|
|
#GOGOEND
|
|
500008000000200000000000,
|
|
#GOGOSTART
|
|
3010202030102220,
|
|
#MEASURE 3/4
|
|
30111010
|
|
#GOGOEND
|
|
#BPMCHANGE 147.5
|
|
#SCROLL 3
|
|
4000,
|
|
#GOGOSTART
|
|
#MEASURE 4/4
|
|
#BPMCHANGE 295
|
|
#SCROLL 1
|
|
1110102011201120,
|
|
100010002000100010002000700000000000800000000000,
|
|
#GOGOEND
|
|
|
|
1111111111111111,
|
|
#MEASURE 7/8
|
|
#BPMCHANGE 258.13
|
|
#SCROLL 1.06
|
|
11111111111111,
|
|
#MEASURE 3/4
|
|
#BPMCHANGE 202.5
|
|
#SCROLL 1.27
|
|
111111111111,
|
|
#MEASURE 5/8
|
|
#BPMCHANGE 168.75
|
|
#SCROLL 1.41
|
|
1111111111,
|
|
#MEASURE 2/4
|
|
#BPMCHANGE 125
|
|
#SCROLL 1.76
|
|
7,
|
|
#SCROLL 1.65
|
|
,
|
|
#BPMCHANGE 120
|
|
#SCROLL 1.6
|
|
08,
|
|
#SCROLL 1.5
|
|
100200200100200222100200,
|
|
|
|
#MEASURE 4/4
|
|
#BPMCHANGE 240
|
|
#SCROLL 0.75
|
|
3000101020101120,
|
|
1111201022121122,
|
|
500008000000200000000000200000100000100000200000,
|
|
100000101010100000101010200000100200000200200000,
|
|
7000800020101120,
|
|
1111201022121122,
|
|
1022201020111020,
|
|
100000200200200000100000101000000000
|
|
#GOGOSTART
|
|
#SCROLL 1
|
|
400000000000,
|
|
|
|
100100101010100100100100101010100100100100101010,
|
|
100100100100101010101010200000000000200000000000,
|
|
#GOGOEND
|
|
#SCROLL 0.75
|
|
3000111120101020,
|
|
100000101010100000101010200000100200000100200000,
|
|
100000202020200000100000200000100000100100200000,
|
|
100100100100200000100000200100100200500008000000,
|
|
#SCROLL 0.84
|
|
3022201020111020,
|
|
#SCROLL 0.95
|
|
3022201020112000,
|
|
|
|
#GOGOSTART
|
|
#SCROLL 1
|
|
#BPMCHANGE 256
|
|
3021201020121020,
|
|
1021201020121122,
|
|
1021201020121020,
|
|
1121201022122122,
|
|
1021201020121020,
|
|
1021201020121122,
|
|
1021201020121020,
|
|
100100200100200000100000200200200200500008000000,
|
|
|
|
#BPMCHANGE 265
|
|
3021201020121020,
|
|
1021201020121122,
|
|
#BPMCHANGE 275
|
|
1021201020121020,
|
|
1121201022122122,
|
|
#BPMCHANGE 285
|
|
1021201020121020,
|
|
1021201020121122,
|
|
#BPMCHANGE 290
|
|
1021212010212120,
|
|
1212121210004000,
|
|
#GOGOEND
|
|
|
|
#BPMCHANGE 295
|
|
#SCROLL 1.75
|
|
3,
|
|
#BARLINEOFF
|
|
,
|
|
,
|
|
500000000008000000000000
|
|
#SCROLL 1
|
|
200000000000200000000000,
|
|
|
|
#BARLINEON
|
|
3002,
|
|
20020022,
|
|
00202022,
|
|
000010101010200000200100,
|
|
0002,
|
|
20020022,
|
|
00202022,
|
|
000010101010200000200000,
|
|
|
|
300000000000000000000000200000002000000000300000,
|
|
0000102011112020,
|
|
3000100022222030,
|
|
002020200200100200200200,
|
|
3032,
|
|
30023020,
|
|
,
|
|
0
|
|
#SCROLL 13
|
|
700,
|
|
|
|
#BPMCHANGE 300
|
|
#SCROLL 1
|
|
8000
|
|
#GOGOSTART
|
|
301210121012,
|
|
1012101211111012,
|
|
1012101210121012,
|
|
100100100000500000008000200000000000200000000000,
|
|
#GOGOEND
|
|
300100102102,
|
|
101020101020101020100200,
|
|
101020100020100020100200,
|
|
122102
|
|
#SCROLL 12.78
|
|
700000,
|
|
|
|
#SCROLL 1
|
|
8000
|
|
#GOGOSTART
|
|
111110121012,
|
|
1012101211111012,
|
|
1111101210121012,
|
|
100100100000500000008000200000000000200000000000,
|
|
#GOGOEND
|
|
100100102102,
|
|
101020101020101020100200,
|
|
100010001000100010001000100100100100100100100100,
|
|
2212,
|
|
|
|
#GOGOSTART
|
|
3000111110111110,
|
|
1111101111101111,
|
|
1010111110111110,
|
|
1111101111101111,
|
|
1000111110111110,
|
|
1111101111101111,
|
|
1010111110111110,
|
|
100100100100200000200000500000008000200000000000,
|
|
|
|
3011101010201111,
|
|
1011101011111020,
|
|
1011101110201111,
|
|
200000100100500008000000200000100100500008000000,
|
|
1111112211111122,
|
|
1111212211112122,
|
|
100000400000300220200300,
|
|
#GOGOEND
|
|
0022,
|
|
|
|
#BPMCHANGE 140
|
|
1000001020020022,
|
|
0
|
|
#GOGOSTART
|
|
#BPMCHANGE 150
|
|
#SCROLL 2
|
|
3
|
|
#BPMCHANGE 155
|
|
3
|
|
#BPMCHANGE 160
|
|
3,
|
|
#SCROLL 1
|
|
#BPMCHANGE 331
|
|
1111111111111122,
|
|
1111211111112122,
|
|
1111211211111122,
|
|
1111211212112122,
|
|
#GOGOEND
|
|
1,
|
|
|
|
|
|
#END
|
|
|
|
|
|
COURSE:Oni
|
|
LEVEL:10
|
|
BALLOON:9,9,94,9,6
|
|
SCOREINIT:450,1360
|
|
SCOREDIFF:105
|
|
|
|
|
|
#START
|
|
|
|
|
|
#SCROLL 2.5
|
|
3,
|
|
#BARLINEOFF
|
|
#SCROLL 1
|
|
,
|
|
|
|
#BARLINEON
|
|
12,
|
|
02,
|
|
12,
|
|
#MEASURE 7/4
|
|
00000000
|
|
#BPMCHANGE 280
|
|
#SCROLL 0.5
|
|
2000000020000000000200000000002000000000
|
|
00000000,
|
|
#MEASURE 4/4
|
|
#SCROLL 1
|
|
7008,
|
|
|
|
#GOGOSTART
|
|
#BPMCHANGE 295
|
|
11211210,
|
|
500000000008000000500000000008000000200000000000,
|
|
11211210,
|
|
500000000008000000500000000008000000100000000000,
|
|
11211210,
|
|
500000000008000000500000000008000000200000000000,
|
|
#GOGOEND
|
|
34,
|
|
43,
|
|
|
|
#GOGOSTART
|
|
11121212,
|
|
500000000008000000500000000008000000200000000000,
|
|
12221212,
|
|
500000000008000000500000000008000000100000000000,
|
|
1414,
|
|
12123434,
|
|
#GOGOEND
|
|
,
|
|
7008,
|
|
|
|
#GOGOSTART
|
|
3000100010111000,
|
|
100100101010100000200000,
|
|
1010102010002011,
|
|
12111020,
|
|
#GOGOEND
|
|
#MEASURE 1/16
|
|
#BPMCHANGE 73.75
|
|
#SCROLL 8
|
|
,
|
|
#GOGOSTART
|
|
#BARLINEOFF
|
|
#MEASURE 3/4
|
|
#BPMCHANGE 295
|
|
#SCROLL 1
|
|
300010111000,
|
|
#BARLINEON
|
|
#MEASURE 4/4
|
|
500000000008000000000000100000100100200000000000,
|
|
#GOGOEND
|
|
100000000000000002000000200000000000200000000000,
|
|
1114,
|
|
|
|
#GOGOSTART
|
|
5,
|
|
000000000000000000000008
|
|
#GOGOEND
|
|
000000000000400000000000,
|
|
#GOGOSTART
|
|
1010102010002011,
|
|
1211
|
|
#GOGOEND
|
|
2020,
|
|
#GOGOSTART
|
|
30203120,
|
|
#MEASURE 3/4
|
|
3111
|
|
#GOGOEND
|
|
#BPMCHANGE 147.5
|
|
#SCROLL 2
|
|
40,
|
|
#GOGOSTART
|
|
#MEASURE 4/4
|
|
#BPMCHANGE 295
|
|
#SCROLL 1
|
|
30303232,
|
|
111111100200,
|
|
#GOGOEND
|
|
|
|
7,
|
|
#MEASURE 7/8
|
|
#BPMCHANGE 258.13
|
|
#SCROLL 1.06
|
|
,
|
|
#MEASURE 3/4
|
|
#BPMCHANGE 202.5
|
|
#SCROLL 1.27
|
|
,
|
|
#MEASURE 5/8
|
|
#BPMCHANGE 168.75
|
|
#SCROLL 1.41
|
|
,
|
|
#MEASURE 2/4
|
|
#BPMCHANGE 125
|
|
#SCROLL 1.76
|
|
,
|
|
#SCROLL 1.65
|
|
,
|
|
#BPMCHANGE 120
|
|
#SCROLL 1.6
|
|
,
|
|
#BPMCHANGE 120
|
|
#SCROLL 1.5
|
|
8,
|
|
|
|
#MEASURE 4/4
|
|
#BPMCHANGE 240
|
|
#SCROLL 0.75
|
|
30112112,
|
|
1111101020111120,
|
|
11401112,
|
|
1011101020020020,
|
|
500000000008000000000000200000100000100000200000,
|
|
1111101020111120,
|
|
1000200020222020,
|
|
102220
|
|
#GOGOSTART
|
|
#SCROLL 1
|
|
40,
|
|
|
|
1111101111101111,
|
|
1011111020002000,
|
|
#GOGOEND
|
|
#SCROLL 0.75
|
|
3000111120101020,
|
|
1110101020020020,
|
|
500000000008000000000000200000100000100100200000,
|
|
1111101020112000,
|
|
#SCROLL 0.84
|
|
30202302,
|
|
#SCROLL 0.95
|
|
3000202020222000,
|
|
|
|
#GOGOSTART
|
|
#SCROLL 1
|
|
#BPMCHANGE 256
|
|
3000201020111020,
|
|
1000201020111020,
|
|
1000201020111020,
|
|
1011201020112000,
|
|
1000201020111020,
|
|
1000201020111020,
|
|
1000201020111020,
|
|
1011201022201000,
|
|
|
|
#BPMCHANGE 265
|
|
3000201020111020,
|
|
1000201020111020,
|
|
#BPMCHANGE 275
|
|
1000201020111020,
|
|
1011201020112000,
|
|
#BPMCHANGE 285
|
|
1000201120102000,
|
|
1000201120202000,
|
|
#BPMCHANGE 290
|
|
12121212,
|
|
1110111010004000,
|
|
#GOGOEND
|
|
|
|
#BPMCHANGE 295
|
|
#SCROLL 1.75
|
|
3,
|
|
#BARLINEOFF
|
|
,
|
|
,
|
|
00
|
|
#SCROLL 1
|
|
22,
|
|
|
|
#BARLINEON
|
|
3002,
|
|
20020022,
|
|
00202022,
|
|
00002021,
|
|
0002,
|
|
20020022,
|
|
00202022,
|
|
0022,
|
|
|
|
30002023,
|
|
00020022,
|
|
30202023,
|
|
0022,
|
|
3032,
|
|
30023020,
|
|
,
|
|
0
|
|
#SCROLL 3
|
|
700,
|
|
|
|
#BPMCHANGE 300
|
|
#SCROLL 1
|
|
80
|
|
#GOGOSTART
|
|
311112,
|
|
1010101011101020,
|
|
11111112,
|
|
1110100020002000,
|
|
#GOGOEND
|
|
300100102102,
|
|
10101012,
|
|
100000100000100020100200,
|
|
11
|
|
#SCROLL 3
|
|
70,
|
|
|
|
#SCROLL 1
|
|
80
|
|
#GOGOSTART
|
|
311112,
|
|
1010101011101020,
|
|
1110101010101020,
|
|
1110100020002000,
|
|
#GOGOEND
|
|
100100102102,
|
|
10101012,
|
|
100010001000100010001000500000000000000008000000,
|
|
4212,
|
|
|
|
#GOGOSTART
|
|
30211211,
|
|
2010102010102011,
|
|
10211211,
|
|
2010102010102022,
|
|
10211211,
|
|
2010102010102011,
|
|
10211211,
|
|
2010102011102000,
|
|
|
|
1010101010101110,
|
|
1010101010101011,
|
|
1010101010101110,
|
|
1010101011101000,
|
|
1110202011102020,
|
|
1120102011201020,
|
|
3000400030222030,
|
|
#GOGOEND
|
|
,
|
|
|
|
#BPMCHANGE 140
|
|
12,
|
|
0
|
|
#GOGOSTART
|
|
#BPMCHANGE 150
|
|
#SCROLL 2
|
|
3
|
|
#BPMCHANGE 155
|
|
3
|
|
#BPMCHANGE 160
|
|
3,
|
|
#SCROLL 1
|
|
#BPMCHANGE 331
|
|
1110101010101020,
|
|
1110201010102020,
|
|
1110201010101020,
|
|
1110201010102020,
|
|
#GOGOEND
|
|
3,
|
|
|
|
|
|
#END
|
|
|
|
|
|
COURSE:Hard
|
|
LEVEL:8
|
|
BALLOON:17,63,6,4
|
|
SCOREINIT:500,2000
|
|
SCOREDIFF:123
|
|
|
|
|
|
#START
|
|
|
|
|
|
#SCROLL 2.5
|
|
3,
|
|
#BARLINEOFF
|
|
#SCROLL 1
|
|
,
|
|
|
|
#BARLINEON
|
|
12,
|
|
02,
|
|
12,
|
|
#MEASURE 7/4
|
|
0
|
|
#BPMCHANGE 280
|
|
#SCROLL 0.5
|
|
700000,
|
|
#MEASURE 4/4
|
|
#SCROLL 1
|
|
0008,
|
|
|
|
#GOGOSTART
|
|
#BPMCHANGE 295
|
|
11201020,
|
|
10010000,
|
|
11201020,
|
|
20020000,
|
|
11201020,
|
|
10010000,
|
|
#GOGOEND
|
|
22,
|
|
22,
|
|
|
|
#GOGOSTART
|
|
11211020,
|
|
10010000,
|
|
11211020,
|
|
20020000,
|
|
3344,
|
|
3434,
|
|
#GOGOEND
|
|
,
|
|
500000000000000000000000000000000008000000000000,
|
|
|
|
#GOGOSTART
|
|
10101122,
|
|
10111020,
|
|
10010020,
|
|
11102020,
|
|
#GOGOEND
|
|
#MEASURE 1/16
|
|
#BPMCHANGE 73.75
|
|
#SCROLL 8
|
|
,
|
|
#GOGOSTART
|
|
#BARLINEOFF
|
|
#MEASURE 3/4
|
|
#BPMCHANGE 295
|
|
#SCROLL 1
|
|
101110,
|
|
#BARLINEON
|
|
#MEASURE 4/4
|
|
10201210,
|
|
#GOGOEND
|
|
20020020,
|
|
2224,
|
|
|
|
#GOGOSTART
|
|
5,
|
|
000000000000000000000008
|
|
#GOGOEND
|
|
000000000000000000000000,
|
|
#GOGOSTART
|
|
10010020,
|
|
1110
|
|
#GOGOEND
|
|
2020,
|
|
#GOGOSTART
|
|
3232,
|
|
#MEASURE 3/4
|
|
1110
|
|
#GOGOEND
|
|
#BPMCHANGE 147.5
|
|
#SCROLL 2
|
|
40,
|
|
#GOGOSTART
|
|
#MEASURE 4/4
|
|
#BPMCHANGE 295
|
|
#SCROLL 1
|
|
5,
|
|
000000000000000000000000000000000008000000000000,
|
|
#GOGOEND
|
|
|
|
7,
|
|
#MEASURE 7/8
|
|
#BPMCHANGE 258.13
|
|
#SCROLL 1.06
|
|
,
|
|
#MEASURE 3/4
|
|
#BPMCHANGE 202.5
|
|
#SCROLL 1.27
|
|
,
|
|
#MEASURE 5/8
|
|
#BPMCHANGE 168.75
|
|
#SCROLL 1.41
|
|
,
|
|
#MEASURE 2/4
|
|
#BPMCHANGE 125
|
|
#SCROLL 1.76
|
|
,
|
|
#SCROLL 1.65
|
|
,
|
|
#BPMCHANGE 120
|
|
#SCROLL 1.6
|
|
,
|
|
#BPMCHANGE 120
|
|
#SCROLL 1.5
|
|
8,
|
|
|
|
#MEASURE 4/4
|
|
#BPMCHANGE 240
|
|
#SCROLL 0.75
|
|
30112011,
|
|
11102000,
|
|
11201011,
|
|
11102000,
|
|
10102011,
|
|
11102000,
|
|
20222020,
|
|
202220
|
|
#GOGOSTART
|
|
#SCROLL 1
|
|
40,
|
|
|
|
5,
|
|
000000000000000000000008000000000000000000000000,
|
|
#GOGOEND
|
|
#SCROLL 0.75
|
|
30112011,
|
|
11102000,
|
|
10002011,
|
|
11102000,
|
|
#SCROLL 0.84
|
|
30202300,
|
|
#SCROLL 0.95
|
|
30202220,
|
|
|
|
#GOGOSTART
|
|
#BPMCHANGE 256
|
|
#SCROLL 1
|
|
10101122,
|
|
10101122,
|
|
10101122,
|
|
1122,
|
|
10101122,
|
|
10101122,
|
|
10101122,
|
|
500000000000000000000000000000000008000000000000,
|
|
|
|
#BPMCHANGE 265
|
|
10101122,
|
|
10101122,
|
|
#BPMCHANGE 275
|
|
10101122,
|
|
1122,
|
|
#BPMCHANGE 285
|
|
10112020,
|
|
10112220,
|
|
#BPMCHANGE 290
|
|
11111111,
|
|
500000000000000000000008000000000000400000000000,
|
|
#GOGOEND
|
|
|
|
#SCROLL 1.75
|
|
#BPMCHANGE 295
|
|
3,
|
|
#BARLINEOFF
|
|
,
|
|
,
|
|
00
|
|
#SCROLL 1
|
|
22,
|
|
|
|
#BARLINEON
|
|
3002,
|
|
20020022,
|
|
00202022,
|
|
00002021,
|
|
0002,
|
|
20020022,
|
|
00202022,
|
|
0022,
|
|
|
|
30002023,
|
|
00020022,
|
|
30002023,
|
|
0022,
|
|
3032,
|
|
30023020,
|
|
,
|
|
0
|
|
#SCROLL 3
|
|
700,
|
|
|
|
#BPMCHANGE 300
|
|
#SCROLL 1
|
|
80
|
|
#GOGOSTART
|
|
111110,
|
|
11111110,
|
|
11111110,
|
|
11102020,
|
|
#GOGOEND
|
|
1111,
|
|
20202022,
|
|
10101011,
|
|
1
|
|
#SCROLL 3
|
|
7,
|
|
|
|
#SCROLL 1
|
|
80
|
|
#GOGOSTART
|
|
111110,
|
|
11111110,
|
|
11111110,
|
|
11102020,
|
|
#GOGOEND
|
|
1111,
|
|
20202022,
|
|
10101111,
|
|
1022,
|
|
|
|
#GOGOSTART
|
|
3002,
|
|
10010022,
|
|
00101011,
|
|
00002022,
|
|
0002,
|
|
10010022,
|
|
00101011,
|
|
0022,
|
|
|
|
11111110,
|
|
11111110,
|
|
11111120,
|
|
11111120,
|
|
11111111,
|
|
11111111,
|
|
30303033,
|
|
#GOGOEND
|
|
,
|
|
|
|
#BPMCHANGE 140
|
|
12,
|
|
0
|
|
#GOGOSTART
|
|
#BPMCHANGE 150
|
|
#SCROLL 2
|
|
3
|
|
#BPMCHANGE 155
|
|
3
|
|
#BPMCHANGE 160
|
|
3,
|
|
#SCROLL 1
|
|
#BPMCHANGE 331
|
|
11111111,
|
|
11111111,
|
|
11111111,
|
|
11111111,
|
|
#GOGOEND
|
|
3,
|
|
,
|
|
#END
|
|
|
|
COURSE:Normal
|
|
LEVEL:7
|
|
BALLOON:10,5,37,4,2,24
|
|
SCOREINIT:570,3050
|
|
SCOREDIFF:140
|
|
|
|
#START
|
|
#SCROLL 2.5
|
|
3,
|
|
#BARLINEOFF
|
|
#SCROLL 1
|
|
,
|
|
|
|
#BARLINEON
|
|
12,
|
|
02,
|
|
12,
|
|
#MEASURE 7/4
|
|
0
|
|
#BPMCHANGE 280
|
|
#SCROLL 0.5
|
|
700000,
|
|
#MEASURE 4/4
|
|
#SCROLL 1
|
|
0008,
|
|
|
|
#GOGOSTART
|
|
#BPMCHANGE 295
|
|
11101010,
|
|
10010000,
|
|
11101010,
|
|
20020000,
|
|
11101010,
|
|
10010000,
|
|
#GOGOEND
|
|
22,
|
|
22,
|
|
|
|
#GOGOSTART
|
|
10111010,
|
|
10010000,
|
|
10111010,
|
|
20020000,
|
|
3333,
|
|
4444,
|
|
#GOGOEND
|
|
,
|
|
500000000000000000000000000000000008000000000000,
|
|
|
|
#GOGOSTART
|
|
10101110,
|
|
10111010,
|
|
20020020,
|
|
22202020,
|
|
#GOGOEND
|
|
#MEASURE 1/16
|
|
#BPMCHANGE 73.75
|
|
#SCROLL 8
|
|
,
|
|
#GOGOSTART
|
|
#BARLINEOFF
|
|
#MEASURE 3/4
|
|
#BPMCHANGE 295
|
|
#SCROLL 1
|
|
101110,
|
|
#BARLINEON
|
|
#MEASURE 4/4
|
|
10101110,
|
|
#GOGOEND
|
|
7,
|
|
0008,
|
|
|
|
#GOGOSTART
|
|
5,
|
|
000000000000000000000008
|
|
#GOGOEND
|
|
000000000000000000000000,
|
|
#GOGOSTART
|
|
20020020,
|
|
2220
|
|
#GOGOEND
|
|
2020,
|
|
#GOGOSTART
|
|
3131,
|
|
#MEASURE 3/4
|
|
33
|
|
#GOGOEND
|
|
#BPMCHANGE 147.5
|
|
#SCROLL 2
|
|
4,
|
|
#GOGOSTART
|
|
#MEASURE 4/4
|
|
#BPMCHANGE 295
|
|
#SCROLL 1
|
|
5,
|
|
000000000000000000000000000000000008000000000000,
|
|
#GOGOEND
|
|
|
|
7,
|
|
#MEASURE 7/8
|
|
#BPMCHANGE 258.13
|
|
#SCROLL 1.06
|
|
,
|
|
#MEASURE 3/4
|
|
#BPMCHANGE 202.5
|
|
#SCROLL 1.27
|
|
,
|
|
#MEASURE 5/8
|
|
#BPMCHANGE 168.75
|
|
#SCROLL 1.41
|
|
,
|
|
#MEASURE 2/4
|
|
#BPMCHANGE 125
|
|
#SCROLL 1.76
|
|
,
|
|
#SCROLL 1.65
|
|
,
|
|
#BPMCHANGE 120
|
|
#SCROLL 1.6
|
|
,
|
|
#BPMCHANGE 120
|
|
#SCROLL 1.5
|
|
8,
|
|
|
|
#MEASURE 4/4
|
|
#BPMCHANGE 240
|
|
#SCROLL 0.75
|
|
32,
|
|
1120,
|
|
1210,
|
|
1120,
|
|
12,
|
|
1120,
|
|
22,
|
|
202
|
|
#GOGOSTART
|
|
#SCROLL 1
|
|
4,
|
|
|
|
5,
|
|
000000000000000000000008000000000000000000000000,
|
|
#GOGOEND
|
|
#SCROLL 0.75
|
|
32,
|
|
1120,
|
|
12,
|
|
1120,
|
|
#SCROLL 0.84
|
|
3,
|
|
#SCROLL 0.95
|
|
32,
|
|
|
|
#GOGOSTART
|
|
#BPMCHANGE 256
|
|
#SCROLL 1
|
|
10101011,
|
|
1110,
|
|
10101011,
|
|
2220,
|
|
10101011,
|
|
1110,
|
|
10101011,
|
|
500000000000000000000000000000000008000000000000,
|
|
|
|
#BPMCHANGE 265
|
|
10101011,
|
|
1110,
|
|
#BPMCHANGE 275
|
|
10101011,
|
|
2220,
|
|
#BPMCHANGE 285
|
|
1122,
|
|
10102220,
|
|
#BPMCHANGE 290
|
|
10101110,
|
|
500000000000000000000008000000000000400000000000,
|
|
#GOGOEND
|
|
|
|
#SCROLL 1.75
|
|
#BPMCHANGE 295
|
|
3,
|
|
#BARLINEOFF
|
|
,
|
|
,
|
|
,
|
|
|
|
#SCROLL 1
|
|
#BARLINEON
|
|
3002,
|
|
20020022,
|
|
00202022,
|
|
00000001,
|
|
0002,
|
|
20020022,
|
|
00202022,
|
|
,
|
|
|
|
30002003,
|
|
00020020,
|
|
30002003,
|
|
0022,
|
|
3032,
|
|
3032,
|
|
,
|
|
0
|
|
#SCROLL 3
|
|
700,
|
|
|
|
#BPMCHANGE 300
|
|
#SCROLL 1
|
|
80
|
|
#GOGOSTART
|
|
101110,
|
|
11101110,
|
|
11101110,
|
|
11102000,
|
|
#GOGOEND
|
|
1111,
|
|
2222,
|
|
10101011,
|
|
1
|
|
#SCROLL 3
|
|
7,
|
|
|
|
#SCROLL 1
|
|
80
|
|
#GOGOSTART
|
|
101110,
|
|
11101110,
|
|
11101110,
|
|
11102000,
|
|
#GOGOEND
|
|
1111,
|
|
2222,
|
|
500000000000000000000000000000000000000000000008,
|
|
,
|
|
|
|
#GOGOSTART
|
|
3001,
|
|
10010011,
|
|
00101011,
|
|
00002022,
|
|
0001,
|
|
10010011,
|
|
00101011,
|
|
0022,
|
|
|
|
9,
|
|
,
|
|
,
|
|
,
|
|
,
|
|
9008,
|
|
30303033,
|
|
#GOGOEND
|
|
,
|
|
|
|
#BPMCHANGE 140
|
|
12,
|
|
0
|
|
#GOGOSTART
|
|
#BPMCHANGE 150
|
|
#SCROLL 2
|
|
3
|
|
#BPMCHANGE 155
|
|
3
|
|
#BPMCHANGE 160
|
|
3,
|
|
#SCROLL 1
|
|
#BPMCHANGE 331
|
|
6,
|
|
,
|
|
,
|
|
000000000000000000000000000000000008000000000000,
|
|
#GOGOEND
|
|
3,
|
|
,
|
|
#END
|
|
|
|
COURSE:Easy
|
|
LEVEL:5
|
|
BALLOON:8,4,31,3,2,20
|
|
SCOREINIT:460,4730
|
|
SCOREDIFF:110
|
|
|
|
#START
|
|
#SCROLL 2.5
|
|
3,
|
|
#BARLINEOFF
|
|
#SCROLL 1
|
|
,
|
|
|
|
#BARLINEON
|
|
12,
|
|
02,
|
|
12,
|
|
#MEASURE 7/4
|
|
0
|
|
#BPMCHANGE 280
|
|
#SCROLL 0.5
|
|
700000,
|
|
#MEASURE 4/4
|
|
#SCROLL 1
|
|
0008,
|
|
|
|
#GOGOSTART
|
|
#BPMCHANGE 295
|
|
11,
|
|
20020000,
|
|
11,
|
|
20020000,
|
|
11,
|
|
20020000,
|
|
#GOGOEND
|
|
11,
|
|
1,
|
|
|
|
#GOGOSTART
|
|
1110,
|
|
20020000,
|
|
1110,
|
|
20020000,
|
|
33,
|
|
3330,
|
|
#GOGOEND
|
|
,
|
|
500000000000000000000000000008000000000000000000,
|
|
|
|
#GOGOSTART
|
|
1110,
|
|
1110,
|
|
2,
|
|
2220,
|
|
#GOGOEND
|
|
#MEASURE 1/16
|
|
#BPMCHANGE 73.75
|
|
#SCROLL 8
|
|
,
|
|
#GOGOSTART
|
|
#BARLINEOFF
|
|
#MEASURE 3/4
|
|
#BPMCHANGE 295
|
|
#SCROLL 1
|
|
110,
|
|
#BARLINEON
|
|
#MEASURE 4/4
|
|
1110,
|
|
#GOGOEND
|
|
7,
|
|
0008,
|
|
|
|
#GOGOSTART
|
|
5,
|
|
000000000000000000000008
|
|
#GOGOEND
|
|
000000000000000000000000,
|
|
#GOGOSTART
|
|
2,
|
|
22
|
|
#GOGOEND
|
|
20,
|
|
#GOGOSTART
|
|
33,
|
|
#MEASURE 3/4
|
|
30
|
|
#GOGOEND
|
|
#BPMCHANGE 147.5
|
|
#SCROLL 2
|
|
4,
|
|
#GOGOSTART
|
|
#MEASURE 4/4
|
|
#BPMCHANGE 295
|
|
#SCROLL 1
|
|
5,
|
|
000000000000000000000000000000000008000000000000,
|
|
#GOGOEND
|
|
|
|
7,
|
|
#MEASURE 7/8
|
|
#BPMCHANGE 258.13
|
|
#SCROLL 1.06
|
|
,
|
|
#MEASURE 3/4
|
|
#BPMCHANGE 202.5
|
|
#SCROLL 1.27
|
|
,
|
|
#MEASURE 5/8
|
|
#BPMCHANGE 168.75
|
|
#SCROLL 1.41
|
|
,
|
|
#MEASURE 2/4
|
|
#BPMCHANGE 125
|
|
#SCROLL 1.76
|
|
,
|
|
#SCROLL 1.65
|
|
,
|
|
#BPMCHANGE 120
|
|
#SCROLL 1.6
|
|
,
|
|
#BPMCHANGE 120
|
|
#SCROLL 1.5
|
|
8,
|
|
|
|
#MEASURE 4/4
|
|
#BPMCHANGE 240
|
|
#SCROLL 0.75
|
|
31,
|
|
1110,
|
|
21,
|
|
1110,
|
|
21,
|
|
1110,
|
|
2,
|
|
200
|
|
#GOGOSTART
|
|
#SCROLL 1
|
|
0,
|
|
|
|
5,
|
|
000000000000000000000008000000000000000000000000,
|
|
#GOGOEND
|
|
#SCROLL 0.75
|
|
31,
|
|
1110,
|
|
21,
|
|
1110,
|
|
#SCROLL 0.84
|
|
3,
|
|
#SCROLL 0.95
|
|
3,
|
|
|
|
#GOGOSTART
|
|
#BPMCHANGE 256
|
|
#SCROLL 1
|
|
1110,
|
|
1110,
|
|
1110,
|
|
22,
|
|
1110,
|
|
1110,
|
|
1110,
|
|
500000000000000000000000000008000000000000000000,
|
|
|
|
#BPMCHANGE 265
|
|
1110,
|
|
1110,
|
|
#BPMCHANGE 275
|
|
1110,
|
|
22,
|
|
#BPMCHANGE 285
|
|
1120,
|
|
1120,
|
|
#BPMCHANGE 290
|
|
1111,
|
|
500000000000000000000008000000000000000000000000,
|
|
#GOGOEND
|
|
|
|
#SCROLL 1.75
|
|
#BPMCHANGE 295
|
|
3,
|
|
#BARLINEOFF
|
|
,
|
|
,
|
|
,
|
|
|
|
#SCROLL 1
|
|
#BARLINEON
|
|
3,
|
|
20020020,
|
|
00002002,
|
|
00000001,
|
|
,
|
|
20020020,
|
|
00002002,
|
|
,
|
|
|
|
30000003,
|
|
,
|
|
30000003,
|
|
,
|
|
33,
|
|
33,
|
|
,
|
|
0
|
|
#SCROLL 3
|
|
700,
|
|
|
|
#BPMCHANGE 300
|
|
#SCROLL 1
|
|
8
|
|
#GOGOSTART
|
|
110,
|
|
1110,
|
|
1111,
|
|
500000000000000000000008000000000000000000000000,
|
|
#GOGOEND
|
|
11,
|
|
11,
|
|
1111,
|
|
1
|
|
#SCROLL 3
|
|
7,
|
|
|
|
#SCROLL 1
|
|
8
|
|
#GOGOSTART
|
|
110,
|
|
1110,
|
|
1111,
|
|
500000000000000000000008000000000000000000000000,
|
|
#GOGOEND
|
|
11,
|
|
11,
|
|
500000000000000000000000000000000000000000000008,
|
|
,
|
|
|
|
#GOGOSTART
|
|
3001,
|
|
10010010,
|
|
0111,
|
|
00002001,
|
|
0001,
|
|
10010010,
|
|
0111,
|
|
02,
|
|
|
|
9,
|
|
,
|
|
,
|
|
,
|
|
,
|
|
9008,
|
|
30303003,
|
|
#GOGOEND
|
|
,
|
|
|
|
#BPMCHANGE 140
|
|
12,
|
|
0
|
|
#GOGOSTART
|
|
#BPMCHANGE 150
|
|
#SCROLL 2
|
|
3
|
|
#BPMCHANGE 155
|
|
3
|
|
#BPMCHANGE 160
|
|
3,
|
|
#SCROLL 1
|
|
#BPMCHANGE 331
|
|
6,
|
|
,
|
|
,
|
|
000000000000000000000000000008000000000000000000,
|
|
#GOGOEND
|
|
3,
|
|
|
|
|
|
#END
|
|
|