907 lines
12 KiB
Plaintext
907 lines
12 KiB
Plaintext
//TJADB Project
|
|
TITLE:Issei Fuubi
|
|
TITLEJA:一世風靡
|
|
SUBTITLE:--Kakumi Nishigomi
|
|
SUBTITLEJA:太鼓 de タイムトラベル江戸 / 西込加久見
|
|
BPM:210
|
|
WAVE:Issei Fuubi.ogg
|
|
OFFSET:-1.395
|
|
DEMOSTART:11.966
|
|
|
|
COURSE:Oni
|
|
LEVEL:9
|
|
BALLOON:5,16,2,2,2,2,2,2,2,2,2,2,2,2,2,2,2,2
|
|
SCOREINIT:1150
|
|
SCOREDIFF:0
|
|
|
|
|
|
#START
|
|
|
|
|
|
#BARLINEOFF
|
|
#MEASURE 1/4
|
|
500000000008,
|
|
#SECTION
|
|
#MEASURE 4/4
|
|
000000000000000000000000000000000000000000000000,
|
|
|
|
#BRANCHSTART r,1,2
|
|
#N
|
|
#BARLINEON
|
|
#MEASURE 4/4
|
|
100200202202,
|
|
102102102100,
|
|
100200202202,
|
|
122102102300,
|
|
100200102202,
|
|
102102102100,
|
|
001101100100,
|
|
300000003000000000006000000000000008000000000000,
|
|
#GOGOSTART
|
|
100201100200,
|
|
101001001400,
|
|
102202202002,
|
|
102102102100,
|
|
100201100200,
|
|
101001300300,
|
|
102202101201,
|
|
100000001000100000000000600000000008000000000000,
|
|
100201100200,
|
|
101001001400,
|
|
102201202002,
|
|
102202102400,
|
|
100201100200,
|
|
101001001300,
|
|
102202101101,
|
|
100010000010700000000800,
|
|
#GOGOEND
|
|
100201102202,
|
|
102200100200,
|
|
102201102202,
|
|
100201201200,
|
|
100100100100200000001000100000000000200000001000,
|
|
102200102202,
|
|
101101001001,
|
|
500000000000000008000000300000000000000000000000,
|
|
#GOGOSTART
|
|
100201100200,
|
|
101001001400,
|
|
102202202002,
|
|
102202102400,
|
|
100201100200,
|
|
101001001300,
|
|
102202101101,
|
|
100000001000300000000000600000000008000000000000,
|
|
#GOGOEND
|
|
101004000101,
|
|
004001101400,
|
|
101004000101,
|
|
004001102300,
|
|
102004000102,
|
|
004001101300,
|
|
102003000102,
|
|
000000003000000000000000100100100100100000001000,
|
|
1212,
|
|
102200102200,
|
|
1212,
|
|
101201201200,
|
|
1212,
|
|
102200102200,
|
|
100201100200,
|
|
100000001000100000000000600000000008000000000000,
|
|
#BPMCHANGE 137
|
|
3002202011101001,
|
|
#BPMCHANGE 141
|
|
1020112010103000,
|
|
#BPMCHANGE 143
|
|
3020122022102010,
|
|
#BPMCHANGE 146
|
|
200000000000100000200000300000000000600008000000,
|
|
#BPMCHANGE 149
|
|
1020202011011020,
|
|
#BPMCHANGE 152
|
|
2020110210203000,
|
|
#BPMCHANGE 153
|
|
3021102022202010,
|
|
#BPMCHANGE 155
|
|
1120211030003000,
|
|
#BPMCHANGE 159
|
|
1020112020221010,
|
|
1020122020121020,
|
|
#BPMCHANGE 160
|
|
1020112020221010,
|
|
#BPMCHANGE 161
|
|
21402140,
|
|
#BPMCHANGE 167
|
|
1020112020221020,
|
|
#BPMCHANGE 169
|
|
1010222011201020,
|
|
#BPMCHANGE 172
|
|
12120212,
|
|
1111100040004000,
|
|
1110102010211010,
|
|
2210400022104000,
|
|
2210201022104000,
|
|
#BPMCHANGE 177
|
|
2210101020101010,
|
|
1220122012203000,
|
|
#BPMCHANGE 178
|
|
2210102210102210,
|
|
1022101022104000,
|
|
2210102022101020,
|
|
2210102022103020,
|
|
#BPMCHANGE 184
|
|
1020102022102022,
|
|
#BPMCHANGE 191
|
|
11212212,
|
|
1012101020102010,
|
|
#BPMCHANGE 203
|
|
1012101010206080,
|
|
#BPMCHANGE 193
|
|
#SCROLL 1.052
|
|
,
|
|
#GOGOSTART
|
|
#BPMCHANGE 210
|
|
#SCROLL 1
|
|
100201100200,
|
|
101001001400,
|
|
102202202002,
|
|
102102102100,
|
|
100201100200,
|
|
101001300300,
|
|
102202102102,
|
|
300000003000000000006000000000000008000000000000,
|
|
#GOGOEND
|
|
101004000101,
|
|
004001101100,
|
|
101004000101,
|
|
004001102200,
|
|
102004000102,
|
|
004001102100,
|
|
002202221102,
|
|
100010200020300300300000,
|
|
|
|
#E
|
|
#BARLINEON
|
|
#MEASURE 4/4
|
|
,
|
|
4443,
|
|
3,
|
|
500000000000008000000000300000000000400000000000,
|
|
102201100200,
|
|
100201100200,
|
|
002201200200,
|
|
404003000000,
|
|
#GOGOSTART
|
|
100100100100100000002000100000002000200000000000,
|
|
101001001201,
|
|
102201102201,
|
|
001201201200,
|
|
100100100100100000002000100000002000200000000000,
|
|
101001201200,
|
|
101202101100,
|
|
100022200020200000300000,
|
|
100100100100100000002000100000002000200000000000,
|
|
101001001201,
|
|
102201102201,
|
|
001001001200,
|
|
100100100100100000002000100000002000200000000000,
|
|
101001001200,
|
|
101202101100,
|
|
100100100100100000001000200000002000300000000000,
|
|
#GOGOEND
|
|
1112,
|
|
101202100200,
|
|
1112,
|
|
101200400400,
|
|
1112,
|
|
201102101200,
|
|
112112002112,
|
|
2143,
|
|
#GOGOSTART
|
|
100100100100100000002000100000002000200000000000,
|
|
101001001201,
|
|
102201102201,
|
|
001201201200,
|
|
100100100100100000002000100000002000200000000000,
|
|
101001001200,
|
|
101202101100,
|
|
102001200300,
|
|
#GOGOEND
|
|
112102001112,
|
|
102001111200,
|
|
112102001112,
|
|
102001111202,
|
|
112102001112,
|
|
102001111200,
|
|
112102001112,
|
|
100000002000000000001000200200200200200000002000,
|
|
1112,
|
|
1212,
|
|
100100100222,
|
|
2114,
|
|
200100102200,
|
|
200100102200,
|
|
112101000700,
|
|
0008,
|
|
#BPMCHANGE 137
|
|
3,
|
|
#BPMCHANGE 141
|
|
0020001110004000,
|
|
#BPMCHANGE 143
|
|
41,
|
|
#BPMCHANGE 146
|
|
1000002220104002,
|
|
#BPMCHANGE 149
|
|
200100100200200000000122,
|
|
#BPMCHANGE 152
|
|
1010200110104000,
|
|
#BPMCHANGE 153
|
|
4000001110002220,
|
|
#BPMCHANGE 155
|
|
1010222011011040,
|
|
#BPMCHANGE 159
|
|
30111040,
|
|
30111040,
|
|
#BPMCHANGE 160
|
|
3000111010004000,
|
|
#BPMCHANGE 161
|
|
2010200220104000,
|
|
#BPMCHANGE 167
|
|
1022102010201220,
|
|
#BPMCHANGE 169
|
|
11122140,
|
|
#BPMCHANGE 172
|
|
0022102000221020,
|
|
1111222210011020,
|
|
0011102000111020,
|
|
0020001100200011,
|
|
02020212,
|
|
#BPMCHANGE 177
|
|
1122102011221020,
|
|
21212140,
|
|
#BPMCHANGE 178
|
|
10101110,
|
|
10101110,
|
|
1220102012101000,
|
|
1220102012101000,
|
|
#BPMCHANGE 184
|
|
1022102210101022,
|
|
#BPMCHANGE 191
|
|
11111111,
|
|
33333343,
|
|
#BPMCHANGE 203
|
|
1011102010103000,
|
|
#BPMCHANGE 193
|
|
#SCROLL 1.052
|
|
,
|
|
#GOGOSTART
|
|
#BPMCHANGE 210
|
|
#SCROLL 1
|
|
100100100100100000002000100000002000200000001000,
|
|
101001001201,
|
|
102201102201,
|
|
001201201201,
|
|
100100100100100000002000100000002000200000001000,
|
|
101001201201,
|
|
101202101101,
|
|
102001200222,
|
|
#GOGOEND
|
|
112102001112,
|
|
102001111200,
|
|
112102001112,
|
|
102001111200,
|
|
100100100100100000002000000000001000100100100100,
|
|
102001111200,
|
|
3,
|
|
600000000000008000000000300000300000400000000000,
|
|
|
|
#M
|
|
#BARLINEON
|
|
#MEASURE 4/4
|
|
101202101202,
|
|
111202102102,
|
|
101202102102,
|
|
112202102302,
|
|
101202101202,
|
|
111202102102,
|
|
002201201201,
|
|
201104000000,
|
|
#GOGOSTART
|
|
101221202101,
|
|
202101201400,
|
|
102202102202,
|
|
000000007000000800007000000800007000000800000000,
|
|
101211202101,
|
|
202102302300,
|
|
102202102202,
|
|
102111200111,
|
|
201221202101,
|
|
202101201400,
|
|
102202102202,
|
|
001201202300,
|
|
101211202101,
|
|
200000002000100000001000200000007000000800000000,
|
|
102202102202,
|
|
102001202111,
|
|
#GOGOEND
|
|
200102101201,
|
|
101200101200,
|
|
101201001201,
|
|
10787878,
|
|
101201000202,
|
|
102000101201,
|
|
202111222112,
|
|
200010002000100020001000500000000000000008000000,
|
|
#GOGOSTART
|
|
201221202101,
|
|
202101201400,
|
|
102202102202,
|
|
001201202300,
|
|
101211202101,
|
|
200000002000100000001000200000007000000800000000,
|
|
102202102202,
|
|
100000002000100000001000500000000000000008000000,
|
|
#GOGOEND
|
|
201112001201,
|
|
112001100401,
|
|
101112001201,
|
|
112001100301,
|
|
101112101201,
|
|
101020100010100000700800,
|
|
101112201201,
|
|
112211221202,
|
|
101201101201,
|
|
101201101211,
|
|
211201101201,
|
|
101211211201,
|
|
101201101201,
|
|
201201101211,
|
|
211201101201,
|
|
102102100000,
|
|
#BPMCHANGE 137
|
|
200000100100100000101010100100200000200000100100,
|
|
#BPMCHANGE 141
|
|
1021102010203000,
|
|
#BPMCHANGE 143
|
|
3021102122102011,
|
|
#BPMCHANGE 146
|
|
2022101110202020,
|
|
#BPMCHANGE 149
|
|
2011201121021011,
|
|
#BPMCHANGE 152
|
|
1011120120203000,
|
|
#BPMCHANGE 153
|
|
3021102022201020,
|
|
#BPMCHANGE 155
|
|
1020111012012000,
|
|
#BPMCHANGE 159
|
|
3021102120222020,
|
|
1022112210112020,
|
|
#BPMCHANGE 160
|
|
1021102120202121,
|
|
#BPMCHANGE 161
|
|
100000100100200100101010100000100100200000000000,
|
|
#BPMCHANGE 167
|
|
2021102120112021,
|
|
#BPMCHANGE 169
|
|
2011201120104011,
|
|
#BPMCHANGE 172
|
|
1011202110112021,
|
|
1021102110102000,
|
|
2021102110212011,
|
|
2120201112101011,
|
|
2120201122101011,
|
|
#BPMCHANGE 177
|
|
2121221122112211,
|
|
78787878,
|
|
#BPMCHANGE 178
|
|
2011101120111011,
|
|
2011101120111011,
|
|
2210102211202011,
|
|
2210102211202011,
|
|
#BPMCHANGE 184
|
|
2210221122102011,
|
|
#BPMCHANGE 191
|
|
2211201120212011,
|
|
2022102120211012,
|
|
#BPMCHANGE 203
|
|
1022101020203000,
|
|
#BPMCHANGE 193
|
|
#SCROLL 1.052
|
|
,
|
|
#GOGOSTART
|
|
#BPMCHANGE 210
|
|
#SCROLL 1
|
|
101221202101,
|
|
202101201400,
|
|
102202102202,
|
|
000000007000000800007000000800007000000800000000,
|
|
101211202101,
|
|
202102302300,
|
|
102202102202,
|
|
102111201101,
|
|
#GOGOEND
|
|
201112101201,
|
|
112101221101,
|
|
201112201201,
|
|
112201221101,
|
|
201112101201,
|
|
112101122101,
|
|
102202111202,
|
|
100020100010200100400000,
|
|
|
|
|
|
#END
|
|
|
|
|
|
COURSE:Hard
|
|
LEVEL:6
|
|
BALLOON:8,7,10,50,6
|
|
SCOREINIT:2260
|
|
SCOREDIFF:0
|
|
|
|
|
|
#START
|
|
|
|
|
|
#BARLINEOFF
|
|
#MEASURE 5/4
|
|
,
|
|
#BARLINEON
|
|
#MEASURE 4/4
|
|
1202,
|
|
3333,
|
|
1202,
|
|
1133,
|
|
1212,
|
|
3333,
|
|
001101100100,
|
|
300000003000000000006000000000080000000000000000,
|
|
|
|
#GOGOSTART
|
|
1212,
|
|
101001000400,
|
|
100200101001,
|
|
001001101100,
|
|
1212,
|
|
101001000300,
|
|
001101101100,
|
|
100000000000100000000000600000000008000000000000,
|
|
1212,
|
|
101001000400,
|
|
100200101001,
|
|
001001100400,
|
|
1212,
|
|
101001000300,
|
|
001101101100,
|
|
7008,
|
|
|
|
#GOGOEND
|
|
1212,
|
|
1212,
|
|
1122,
|
|
1444,
|
|
100200100201,
|
|
102200100200,
|
|
101001001001,
|
|
1130,
|
|
|
|
#GOGOSTART
|
|
1212,
|
|
101001000400,
|
|
100200101001,
|
|
001001101100,
|
|
1212,
|
|
101001000300,
|
|
001101101100,
|
|
100000000000100000000000600000000008000000000000,
|
|
|
|
#GOGOEND
|
|
101004000101,
|
|
004000100400,
|
|
101004000101,
|
|
004000100300,
|
|
102004000102,
|
|
004000100300,
|
|
102003000102,
|
|
000000003000000000000000500000000008000000000000,
|
|
1012,
|
|
102200102200,
|
|
1215,
|
|
000000000000000000000000000008000000000000000000,
|
|
1122,
|
|
1212,
|
|
100001000700,
|
|
0008,
|
|
#BPMCHANGE 137
|
|
3000200011101000,
|
|
#BPMCHANGE 141
|
|
12021130,
|
|
#BPMCHANGE 143
|
|
32022121,
|
|
#BPMCHANGE 146
|
|
2134,
|
|
#BPMCHANGE 149
|
|
12221012,
|
|
#BPMCHANGE 152
|
|
22101230,
|
|
#BPMCHANGE 153
|
|
32022211,
|
|
#BPMCHANGE 155
|
|
12213030,
|
|
#BPMCHANGE 159
|
|
12021111,
|
|
12021211,
|
|
#BPMCHANGE 160
|
|
12021121,
|
|
#BPMCHANGE 161
|
|
21402140,
|
|
#BPMCHANGE 167
|
|
12021121,
|
|
#BPMCHANGE 169
|
|
11221122,
|
|
#BPMCHANGE 172
|
|
12121212,
|
|
7008,
|
|
11021211,
|
|
11401140,
|
|
11211140,
|
|
#BPMCHANGE 177
|
|
11112111,
|
|
1113,
|
|
#BPMCHANGE 178
|
|
21121121,
|
|
12112140,
|
|
22122212,
|
|
21212140,
|
|
#BPMCHANGE 184
|
|
9,
|
|
#BPMCHANGE 191
|
|
,
|
|
,
|
|
#BPMCHANGE 203
|
|
0008,
|
|
#BPMCHANGE 193
|
|
#SCROLL 1.052
|
|
,
|
|
|
|
#GOGOSTART
|
|
#BPMCHANGE 210
|
|
#SCROLL 1
|
|
1212,
|
|
101001000400,
|
|
100200101001,
|
|
001001101100,
|
|
1212,
|
|
101001000300,
|
|
001101101100,
|
|
300000003000000000006000000000080000000000000000,
|
|
#GOGOEND
|
|
101004000101,
|
|
004000100100,
|
|
101004000101,
|
|
004000100200,
|
|
102004000102,
|
|
004000100100,
|
|
007000000800,
|
|
10103330,
|
|
|
|
|
|
#END
|
|
|
|
|
|
COURSE:Normal
|
|
LEVEL:5
|
|
BALLOON:9,6,5,5,5,5,7,40,5,6
|
|
SCOREINIT:3480
|
|
SCOREDIFF:0
|
|
|
|
|
|
#START
|
|
|
|
|
|
#BARLINEOFF
|
|
#MEASURE 5/4
|
|
,
|
|
#BARLINEON
|
|
#MEASURE 4/4
|
|
1,
|
|
3333,
|
|
1,
|
|
1033,
|
|
11,
|
|
3333,
|
|
007000000000,
|
|
0008,
|
|
|
|
#GOGOSTART
|
|
11,
|
|
101001000400,
|
|
100100100007,
|
|
0008,
|
|
11,
|
|
101001000300,
|
|
1011,
|
|
600000000000000000000000000000000008000000000000,
|
|
11,
|
|
101001000400,
|
|
100100100007,
|
|
0008,
|
|
11,
|
|
101001000300,
|
|
1011,
|
|
7008,
|
|
|
|
#GOGOEND
|
|
1210,
|
|
1210,
|
|
1212,
|
|
1110,
|
|
1012,
|
|
1012,
|
|
5,
|
|
000000080000000000000000300000000000000000000000,
|
|
|
|
#GOGOSTART
|
|
11,
|
|
101001000400,
|
|
100100100007,
|
|
0008,
|
|
11,
|
|
101001000300,
|
|
1011,
|
|
600000000000000000000000000000000008000000000000,
|
|
|
|
#GOGOEND
|
|
100004000100,
|
|
004000000400,
|
|
100004000100,
|
|
004000000300,
|
|
100004000100,
|
|
004000000300,
|
|
101003000101,
|
|
003000000000,
|
|
11,
|
|
1012,
|
|
1215,
|
|
000000000000000000000000000008000000000000000000,
|
|
1111,
|
|
2222,
|
|
100001000700,
|
|
0008,
|
|
#BPMCHANGE 137
|
|
30001110,
|
|
#BPMCHANGE 141
|
|
12021030,
|
|
#BPMCHANGE 143
|
|
32021110,
|
|
#BPMCHANGE 146
|
|
2134,
|
|
#BPMCHANGE 149
|
|
11101010,
|
|
#BPMCHANGE 152
|
|
11101030,
|
|
#BPMCHANGE 153
|
|
3011,
|
|
#BPMCHANGE 155
|
|
11103030,
|
|
#BPMCHANGE 159
|
|
11011010,
|
|
11011010,
|
|
#BPMCHANGE 160
|
|
11011010,
|
|
#BPMCHANGE 161
|
|
11401140,
|
|
#BPMCHANGE 167
|
|
11011010,
|
|
#BPMCHANGE 169
|
|
11102220,
|
|
#BPMCHANGE 172
|
|
11101110,
|
|
7008,
|
|
11010110,
|
|
11401140,
|
|
1114,
|
|
#BPMCHANGE 177
|
|
11102220,
|
|
1113,
|
|
#BPMCHANGE 178
|
|
21021021,
|
|
02101140,
|
|
21102110,
|
|
2214,
|
|
#BPMCHANGE 184
|
|
9,
|
|
#BPMCHANGE 191
|
|
,
|
|
,
|
|
#BPMCHANGE 203
|
|
0008,
|
|
#BPMCHANGE 193
|
|
#SCROLL 1.052
|
|
,
|
|
|
|
#GOGOSTART
|
|
#BPMCHANGE 210
|
|
#SCROLL 1
|
|
11,
|
|
101001000400,
|
|
100100100007,
|
|
0008,
|
|
11,
|
|
101001000300,
|
|
1011,
|
|
600000000000000000000000000000080000000000000000,
|
|
|
|
#GOGOEND
|
|
100004000100,
|
|
004000000100,
|
|
100004000100,
|
|
004000000200,
|
|
100004000100,
|
|
004000000100,
|
|
007000000000,
|
|
0833,
|
|
|
|
|
|
#END
|
|
|
|
|
|
COURSE:Easy
|
|
LEVEL:4
|
|
BALLOON:8,4,4,4,5,4,5,30,5,6
|
|
SCOREINIT:5160
|
|
SCOREDIFF:0
|
|
|
|
|
|
#START
|
|
|
|
|
|
#BARLINEOFF
|
|
#MEASURE 5/4
|
|
,
|
|
#BARLINEON
|
|
#MEASURE 4/4
|
|
1,
|
|
33,
|
|
1,
|
|
1033,
|
|
11,
|
|
33,
|
|
007000000000,
|
|
0008,
|
|
|
|
#GOGOSTART
|
|
11,
|
|
100001000000,
|
|
100000100007,
|
|
0008,
|
|
11,
|
|
100001000000,
|
|
1011,
|
|
600000000000000000000000000008000000000000000000,
|
|
11,
|
|
100001000000,
|
|
100000100007,
|
|
0008,
|
|
11,
|
|
100001000000,
|
|
1011,
|
|
7008,
|
|
|
|
#GOGOEND
|
|
11,
|
|
1110,
|
|
11,
|
|
1110,
|
|
1011,
|
|
1011,
|
|
5,
|
|
000000080000000000000000300000000000000000000000,
|
|
|
|
#GOGOSTART
|
|
11,
|
|
100001000000,
|
|
100000100007,
|
|
0008,
|
|
11,
|
|
100001000000,
|
|
1011,
|
|
600000000000000000000000000008000000000000000000,
|
|
|
|
#GOGOEND
|
|
1001,
|
|
0004,
|
|
1001,
|
|
0003,
|
|
1001,
|
|
0003,
|
|
100003000100,
|
|
003000000000,
|
|
1,
|
|
11,
|
|
1115,
|
|
000000000000000000000000000008000000000000000000,
|
|
11,
|
|
22,
|
|
100001000700,
|
|
0008,
|
|
#BPMCHANGE 137
|
|
31,
|
|
#BPMCHANGE 141
|
|
1013,
|
|
#BPMCHANGE 143
|
|
31,
|
|
#BPMCHANGE 146
|
|
2130,
|
|
#BPMCHANGE 149
|
|
1110,
|
|
#BPMCHANGE 152
|
|
1113,
|
|
#BPMCHANGE 153
|
|
3011,
|
|
#BPMCHANGE 155
|
|
1033,
|
|
#BPMCHANGE 159
|
|
1011,
|
|
1011,
|
|
#BPMCHANGE 160
|
|
1011,
|
|
#BPMCHANGE 161
|
|
1414,
|
|
#BPMCHANGE 167
|
|
1011,
|
|
#BPMCHANGE 169
|
|
1111,
|
|
#BPMCHANGE 172
|
|
1011,
|
|
7008,
|
|
1011,
|
|
1414,
|
|
1014,
|
|
#BPMCHANGE 177
|
|
1122,
|
|
3333,
|
|
#BPMCHANGE 178
|
|
20020020,
|
|
02002040,
|
|
22,
|
|
4444,
|
|
#BPMCHANGE 184
|
|
9,
|
|
#BPMCHANGE 191
|
|
,
|
|
,
|
|
#BPMCHANGE 203
|
|
0008,
|
|
#BPMCHANGE 193
|
|
#SCROLL 1.052
|
|
,
|
|
|
|
#GOGOSTART
|
|
#BPMCHANGE 210
|
|
#SCROLL 1
|
|
11,
|
|
100001000400,
|
|
100000100007,
|
|
0008,
|
|
11,
|
|
100001000000,
|
|
11,
|
|
600000000000000000000000000000080000000000000000,
|
|
|
|
#GOGOEND
|
|
1001,
|
|
0001,
|
|
1001,
|
|
0002,
|
|
1001,
|
|
0001,
|
|
007000000000,
|
|
0833,
|
|
|
|
|
|
#END
|
|
|